logo
Международный русскоязычный
торрент-трекер
Menu
Магазин-KorsaRDoublon
Поделиться с друзьями: 
Голосуй и получи дублоны
Рейтинг торрент трекеров - UpTracker.ru

Десять негритят (1987, детектив, HDTVRip-AVC)

Сообщение Korsar » 08 янв 2017, 19:25

Десять негритят
Жанр: детектив
Год выпуска: 1987
Продолжительность: 02:08:17
Cубтитры: русские
Режиссёр: Станислав Говорухин
В ролях:
Татьяна Друбич, Александр Кайдановский, Алексей Жарков, Владимир Зельдин, Михаил Глузский, Анатолий Ромашин, Людмила Максакова, Александр Абдулов, Алексей Золотницкий, Ирина Терещенко, Фёдор Одиноков.

Описание:
Десять незнакомых друг другу людей, получают приглашение посетить особняк на отдалённом острове. Во время обеда таинственный голос обвиняет каждого из прибывших гостей в совершённых ранее и оставшихся безнаказанными преступлениях. Один за другим гости становятся жертвами неизвестного обличителя...
Сэмпл | Кинопоиск
Качество видео: HDTVRip-AVC / 10 негритят.1987.OAR.1080i.h264.1HD.ts | Кинозал тв, спасибо sss146
Формат видео: MKV

Видео: x264 (High@L4.1); 882х648; Display aspect ratio: 1.361:1, 25.000 fps, 3000 Kbps
Аудио: AC-3; 16 bit 48 Khz; 2.0ch 192 Kbps; CBR
Формат субтитров: softsub (SRT)
- В исходном 5.1 звук только в двух каналах.
- Мерцание по яркости и хроме: Red - Green почти такое же сильное, как в DVB раздачах. Просьба учесть при просмотре и претензии предъявлять оцифровщикам 1HD. Вместе с тем серьёзно превосходит DVB по детализации и немного по наполнению. См. сравнения в скриншотах.

avs [info]: 882x648p 1:1 @ 25/1 fps (cfr)
x264 [info]: using SAR=1/1
x264 [info]: using cpu capabilities: MMX2 SSE2Fast SSSE3 SSE4.2
x264 [info]: profile High, level 4.1

x264 [info]: frame I:1000 Avg QP:17.26 size: 79003
x264 [info]: frame P:45550 Avg QP:19.89 size: 29409
x264 [info]: frame B:145897 Avg QP:21.02 size: 10064
x264 [info]: consecutive B-frames: 1.8% 4.4% 7.6% 34.9% 16.6% 29.0% 3.2% 2.3% 0.1%
x264 [info]: mb I I16..4: 9.0% 76.3% 14.8%
x264 [info]: mb P I16..4: 0.2% 10.2% 0.9% P16..4: 37.4% 39.6% 10.7% 0.0% 0.0% skip: 1.0%
x264 [info]: mb B I16..4: 0.0% 1.7% 0.1% B16..8: 38.3% 17.8% 2.1% direct: 6.7% skip:33.2% L0:37.5% L1:45.9% BI:16.6%
x264 [info]: 8x8 transform intra:88.6% inter:59.1%
x264 [info]: direct mvs spatial:99.5% temporal:0.5%
x264 [info]: coded y,uvDC,uvAC intra: 95.7% 55.8% 17.7% inter: 32.1% 22.8% 2.3%
x264 [info]: i16 v,h,dc,p: 20% 11% 20% 50%
x264 [info]: i8 v,h,dc,ddl,ddr,vr,hd,vl,hu: 11% 9% 10% 10% 13% 12% 12% 11% 12%
x264 [info]: i4 v,h,dc,ddl,ddr,vr,hd,vl,hu: 14% 26% 3% 6% 11% 11% 10% 9% 10%
x264 [info]: i8c dc,h,v,p: 26% 36% 23% 15%
x264 [info]: Weighted P-Frames: Y:37.0% UV:20.9%
x264 [info]: ref P L0: 44.9% 14.2% 13.2% 5.8% 4.6% 4.0% 3.1% 1.8% 1.6% 1.5% 1.4% 1.2% 1.1% 1.1% 0.5% 0.0%
x264 [info]: ref B L0: 85.4% 6.6% 2.1% 1.4% 1.1% 0.9% 0.7% 0.4% 0.4% 0.4% 0.3% 0.2% 0.2%
x264 [info]: ref B L1: 97.2% 2.8%
x264 [info]: kb/s:3000.23

x264 [total]: encoded 192447 frames, 9.57 fps, 3000.23 kb/s

General
Unique ID : 208494081220736952513701333232264289812 (0x9CDA7FDA51F9E57CA65189A2B4AE1E14)
Complete name : Десять негритят.1987.mkv
Format : Matroska
Format version : Version 2
File size : 2.86 GiB
Duration : 2h 8mn
Overall bit rate : 3 194 Kbps
Movie name : «Десять негритят»
Encoded date : UTC 2015-04-25 08:21:50
Writing application : mkvmerge v5.8.0 ('No Sleep / Pillow') built on Sep 2 2012 15:37:04
Writing library : libebml v1.2.3 + libmatroska v1.3.0
Comment : HDTVRip-AVC
Originally released : April 24th 2015
Encoded by : george$t®

Video
ID : 1
Format : AVC
Format/Info : Advanced Video Codec
Format profile : High@L4.1
Format settings, CABAC : Yes
Format settings, ReFrames : 14 frames
Codec ID : V_MPEG4/ISO/AVC
Duration : 2h 8mn
Bit rate : 3 000 Kbps
Width : 882 pixels
Height : 648 pixels
Display aspect ratio : 4:3
Frame rate mode : Constant
Frame rate : 25.000 fps
Color space : YUV
Chroma subsampling : 4:2:0
Bit depth : 8 bits
Scan type : Progressive
Bits/(Pixel*Frame) : 0.210
Stream size : 2.63 GiB (92%)
Title : Десять негритят.1987
Writing library : x264 core 146 r2538 121396c
Encoding settings : cabac=1 / ref=14 / deblock=1:-2:-2 / analyse=0x3:0x113 / me=umh / subme=11 / psy=1 / psy_rd=1.05:0.15 / mixed_ref=1 / me_range=32 / chroma_me=1 / trellis=2 / 8x8dct=1 / cqm=0 / deadzone=21,11 / fast_pskip=0 / chroma_qp_offset=-3 / threads=12 / lookahead_threads=2 / sliced_threads=0 / nr=0 / decimate=0 / interlaced=0 / bluray_compat=0 / constrained_intra=0 / bframes=8 / b_pyramid=2 / b_adapt=2 / b_bias=0 / direct=3 / weightb=1 / open_gop=0 / weightp=2 / keyint=250 / keyint_min=25 / scenecut=40 / intra_refresh=0 / rc_lookahead=40 / rc=2pass / mbtree=0 / bitrate=3000 / ratetol=1.0 / qcomp=0.65 / qpmin=0 / qpmax=69 / qpstep=4 / cplxblur=20.0 / qblur=0.5 / vbv_maxrate=50000 / vbv_bufsize=62500 / nal_hrd=none / filler=0 / ip_ratio=1.35 / pb_ratio=1.20 / aq=1:0.90
Language : Russian
Default : Yes
Forced : No
Color primaries : BT.709
Transfer characteristics : BT.709
Matrix coefficients : BT.709
Color range : Limited

Audio
ID : 2
Format : AC-3
Format/Info : Audio Coding 3
Mode extension : CM (complete main)
Format settings, Endianness : Big
Codec ID : A_AC3
Duration : 2h 8mn
Bit rate mode : Constant
Bit rate : 192 Kbps
Channel(s) : 2 channels
Channel positions : Front: L R
Sampling rate : 48.0 KHz
Bit depth : 16 bits
Compression mode : Lossy
Stream size : 176 MiB (6%)
Title : AC-3; 16 bit 48 Khz; 2.0ch 192 Kbps; CBR
Language : Russian
Default : Yes
Forced : No

Text
ID : 3
Format : UTF-8
Codec ID : S_TEXT/UTF8
Codec ID/Info : UTF-8 Plain Text
Title : Субтитры русские
Language : Russian
Default : No
Forced : No

Menu
00:00:00.000 : ru:Глава 1
00:06:55.320 : ru:Глава 2
00:13:07.560 : ru:Глава 3
00:20:56.760 : ru:Глава 4
00:29:07.400 : ru:Глава 5
00:37:48.480 : ru:Глава 6
00:44:45.080 : ru:Глава 7
00:53:56.800 : ru:Глава 8
01:00:50.800 : ru:Глава 9
01:11:22.840 : ru:Глава 10
01:19:32.920 : ru:Глава 11
01:30:45.280 : ru:Глава 12
01:39:33.680 : ru:Глава 13
01:46:51.600 : ru:Глава 14
01:55:10.880 : ru:Глава 15
02:03:11.720 : ru:Глава 16

Автор рипа: george$t

Боцман
Аватара пользователя
Korsar
Помощник Администратора-Корсар
 
Месяцев на трекере: 11Месяцев на трекере: 11Месяцев на трекере: 11Месяцев на трекере: 11Месяцев на трекере: 11Месяцев на трекере: 11Месяцев на трекере: 11Месяцев на трекере: 11Месяцев на трекере: 11Месяцев на трекере: 11Месяцев на трекере: 11
 

Награды: 8
За отличные раздачи (7) Верный Сид (1)
  • Торрент
Для скачивания торрента необходимо зарегистрироваться или войти на трекер.

Вернуться в Кино времён СССР



мониторинг сайтов