logo
Международный русскоязычный
торрент-трекер
Menu
"Бунт на корабле", за скачанные торрент-файлы дублоны не снимаются. Возможность оплачена пользователем Булкин Семён.
Doublon
Поделиться с друзьями: 
Голосуй за Корсар и получи 500 дублонов
Рейтинг торрент трекеров - UpTracker.ru

Дело о пеликанах / The Pelican Brief (1993, триллер, драма, криминал, детектив, BDRip 720p) - KORSAR

Сообщение lesnik125 » 22 янв 2019, 09:44

Страна: США
Жанр: триллер, драма, криминал, детектив
Год выпуска: 1993
Продолжительность: 02:21:09
Перевод: Профессиональный (полное дублирование), Профессиональный (многоголосый, закадровый), Авторский
Субтитры: русские, английские.
Режиссер: Алан Дж. Пакула / Alan J. Pakula
В ролях: Джулия Робертс (Darby Shaw), Дензел Вашингтон (Gray Grantham), Сэм Шепард (Thomas Callahan), Джон Хёрд (Gavin Vereek), Тони Голдуин (Fletcher Coal), Джеймс Сиккинг (FBI Director Denton Voyles), Уильям Этертон (Bob Gminski), Роберт Калп (President), Стэнли Туччи (Khamel), Хьюм Кронин (Justice Rosenberg), Джон Литгоу (Smith Keen), Энтони Хилд (Marty Velmano)

Описание: Студентка юридического факультета Дарби Шоу, узнав об убийстве двух членов Верховного суда США, начинает копаться в архивах и составляет свою версию того, кто может быть причастен к этому преступлению. Материалы, изложенные в досье, ее преподаватель и, по совместительству, любовник передает своему приятелю - консультанту ФБР. После чего преподавателя-любовника взрывают в собственной машине. А на Дарби начинается настоящая охота.



Качество: BDRip 720p
Контейнер: MKV

Видео: MPEG-4 AVC, 1280x534 (2.40:1), 4850 kbps, 23,976 fps, 0,296 bpp
Аудио №1: русский / AC3 / 5.1 / 48 kHz / 384 kbps / Дубляж ( Мост видео )
Аудио №2: русский / AC3 / 2.0 / 48 kHz / 192 kbps / Дубляж ( Варус видео )
Аудио №3: русский / AC3 / 2.0 / 48 kHz / 192 kbps / MVO ( R5 )
Аудио №4: русский / AC3 / 2.0 / 48 kHz / 192 kbps / MVO ( HTB+ )
Аудио №5: русский / AC3 / 2.0 / 48 kHz / 192 kbps / AVO ( Михалёв )
Аудио №6: русский / AC3 / 2.0 / 48 kHz / 192 kbps / AVO ( Володарский )
Аудио №7: английский / AC3 / 5.1 / 48 kHz / 640 kbps

***************************************************************
x264 [info]: frame I:1220 Avg QP:14.16 size:114611
x264 [info]: frame P:41492 Avg QP:16.61 size: 46796
x264 [info]: frame B:160331 Avg QP:18.24 size: 19034
x264 [info]: consecutive B-frames: 2.0% 2.9% 6.5% 14.8% 15.4% 35.2% 7.8% 7.0% 1.9% 2.8% 1.8% 1.1% 0.8%
***************************************************************
Формат : Matroska
Версия формата : Version 2
Размер файла : 6,74 Гбайт
Продолжительность : 2 ч. 21 м.
Общий поток : 6837 Кбит/сек
Название фильма : = Дело о пеликанах / The Pelican Brief (1993) BDRip 720p - KORSAR =
Дата кодирования : UTC 2019-04-03 07:37:28
Программа кодирования : mkvmerge v5.8.0 ('No Sleep / Pillow') built on Sep 2 2012 15:37:04
Библиотека кодирования : libebml v1.2.3 + libmatroska v1.3.0
Attachment : Yes

Видео
Идентификатор : 1
Формат : AVC
Формат/Информация : Advanced Video Codec
Профиль формата : High@L4.1
Параметр CABAC формата : Да
Параметр ReFrames формата : 12 кадров
Идентификатор кодека : V_MPEG4/ISO/AVC
Продолжительность : 2 ч. 21 м.
Битрейт : 4850 Кбит/сек
Ширина : 1280 пикселей
Высота : 534 пикселя
Соотношение сторон : 2,40:1
Режим частоты кадров : Постоянный
Частота кадров : 23,976 кадра/сек
Цветовое пространство : YUV
Субдискретизация насыщенности : 4:2:0
Битовая глубина : 8 бит
Тип развёртки : Прогрессивная
Бит/(Пиксели*Кадры) : 0.296
Размер потока : 4,65 Гбайт (69%)
Заголовок : Дело о пеликанах / The Pelican Brief (1993) BDRip 720p - KORSAR
Библиотека кодирования : x264 core 152 r2851kMod ba24899
Настройки программы : cabac=1 / ref=12 / deblock=1:-3:-3 / analyse=0x3:0x113 / me=umh / subme=11 / psy=1 / fade_compensate=0.00 / psy_rd=1.02:0.04 / mixed_ref=1 / me_range=48 / chroma_me=1 / trellis=2 / 8x8dct=1 / cqm=0 / deadzone=21,11 / fast_pskip=0 / chroma_qp_offset=-3 / threads=12 / lookahead_threads=3 / sliced_threads=0 / nr=0 / decimate=0 / interlaced=0 / bluray_compat=0 / constrained_intra=0 / bframes=12 / b_pyramid=2 / b_adapt=2 / b_bias=0 / direct=3 / weightb=1 / open_gop=0 / weightp=2 / keyint=240 / keyint_min=23 / scenecut=40 / intra_refresh=0 / rc_lookahead=60 / rc=2pass / mbtree=0 / bitrate=4850 / ratetol=1.0 / qcomp=0.66 / qpmin=0 / qpmax=39 / qpstep=4 / cplxblur=20.0 / qblur=0.5 / vbv_maxrate=50000 / vbv_bufsize=62500 / nal_hrd=none / filler=0 / ip_ratio=1.25 / pb_ratio=1.30 / aq=3:0.70
Язык : English
Default : Да
Forced : Нет
Основные цвета : BT.709
Характеристики трансфера : BT.709
Коэффициенты матрицы : BT.709

Аудио #1
Идентификатор : 2
Формат : AC-3
Формат/Информация : Audio Coding 3
Расширение режима : CM (complete main)
Параметр Endianness формата : Big
Идентификатор кодека : A_AC3
Продолжительность : 2 ч. 21 м.
Вид битрейта : Постоянный
Битрейт : 384 Кбит/сек
Каналы : 6 каналов
Расположение каналов : Front: L C R, Side: L R, LFE
Частота : 48,0 КГц
Битовая глубина : 16 бит
Метод сжатия : С потерями
Размер потока : 388 Мбайт (6%)
Заголовок : Дубляж ( Мост видео )
Язык : Russian
Default : Да
Forced : Нет

Аудио #2
Идентификатор : 3
Формат : AC-3
Формат/Информация : Audio Coding 3
Расширение режима : CM (complete main)
Параметр Endianness формата : Big
Идентификатор кодека : A_AC3
Продолжительность : 2 ч. 21 м.
Вид битрейта : Постоянный
Битрейт : 192 Кбит/сек
Каналы : 2 канала
Расположение каналов : Front: L R
Частота : 48,0 КГц
Битовая глубина : 16 бит
Метод сжатия : С потерями
Размер потока : 194 Мбайт (3%)
Заголовок : Дубляж ( Варус видео )
Язык : Russian
Default : Нет
Forced : Нет

Аудио #3
Идентификатор : 4
Формат : AC-3
Формат/Информация : Audio Coding 3
Расширение режима : CM (complete main)
Параметр Endianness формата : Big
Идентификатор кодека : A_AC3
Продолжительность : 2 ч. 21 м.
Вид битрейта : Постоянный
Битрейт : 192 Кбит/сек
Каналы : 2 канала
Расположение каналов : Front: L R
Частота : 48,0 КГц
Битовая глубина : 16 бит
Метод сжатия : С потерями
Размер потока : 194 Мбайт (3%)
Заголовок : MVO ( R5 )
Язык : Russian
Default : Нет
Forced : Нет

Аудио #4
Идентификатор : 5
Формат : AC-3
Формат/Информация : Audio Coding 3
Расширение режима : CM (complete main)
Параметр Endianness формата : Big
Идентификатор кодека : A_AC3
Продолжительность : 2 ч. 21 м.
Вид битрейта : Постоянный
Битрейт : 192 Кбит/сек
Каналы : 2 канала
Расположение каналов : Front: L R
Частота : 48,0 КГц
Битовая глубина : 16 бит
Метод сжатия : С потерями
Размер потока : 194 Мбайт (3%)
Заголовок : MVO ( HTB+ )
Язык : Russian
Default : Нет
Forced : Нет

Аудио #5
Идентификатор : 6
Формат : AC-3
Формат/Информация : Audio Coding 3
Расширение режима : CM (complete main)
Параметр Endianness формата : Big
Идентификатор кодека : A_AC3
Продолжительность : 2 ч. 21 м.
Вид битрейта : Постоянный
Битрейт : 192 Кбит/сек
Каналы : 2 канала
Расположение каналов : Front: L R
Частота : 48,0 КГц
Битовая глубина : 16 бит
Метод сжатия : С потерями
Размер потока : 194 Мбайт (3%)
Заголовок : AVO ( Михалёв )
Язык : Russian
Default : Нет
Forced : Нет

Аудио #6
Идентификатор : 7
Формат : AC-3
Формат/Информация : Audio Coding 3
Расширение режима : CM (complete main)
Параметр Endianness формата : Big
Идентификатор кодека : A_AC3
Продолжительность : 2 ч. 21 м.
Вид битрейта : Постоянный
Битрейт : 192 Кбит/сек
Каналы : 2 канала
Расположение каналов : Front: L R
Частота : 48,0 КГц
Битовая глубина : 16 бит
Метод сжатия : С потерями
Размер потока : 194 Мбайт (3%)
Заголовок : AVO ( Володарский )
Язык : Russian
Default : Нет
Forced : Нет

Аудио #7
Идентификатор : 8
Формат : AC-3
Формат/Информация : Audio Coding 3
Расширение режима : CM (complete main)
Параметр Endianness формата : Big
Идентификатор кодека : A_AC3
Продолжительность : 2 ч. 21 м.
Вид битрейта : Постоянный
Битрейт : 640 Кбит/сек
Каналы : 6 каналов
Расположение каналов : Front: L C R, Side: L R, LFE
Частота : 48,0 КГц
Битовая глубина : 16 бит
Метод сжатия : С потерями
Размер потока : 646 Мбайт (9%)
Язык : English
Default : Нет
Forced : Нет

Текст #1
Идентификатор : 9
Формат : UTF-8
Идентификатор кодека : S_TEXT/UTF8
Идентификатор кодека/Информация : UTF-8 Plain Text
Язык : Russian
Default : Нет
Forced : Нет

Текст #2
Идентификатор : 10
Формат : UTF-8
Идентификатор кодека : S_TEXT/UTF8
Идентификатор кодека/Информация : UTF-8 Plain Text
Язык : English
Default : Нет
Forced : Нет




Просьба отключить блокировщики рекламы на странице скриншотов по адресу: http://3.lostpic.net/, этим Вы поможете существованию проекта. Заранее спасибо!
Последний раз редактировалось lesnik125 20 апр 2019, 07:34, всего редактировалось 1 раз.
Причина: Поглощённый торрент
КУБКИ

СТАЖ

МЕДАЛИ
Награды:71

За помощь проекту (11) Лучший по количеству кубков (3) За отличные раздачи и качество (32) За подробное оформление раздач (2) За отличные комментарии (5) Почётный форумчанин (4) Верный Сид (12)

Аватара пользователя
СССР
lesnik125
Опытный Модератор-Корсар
Раздачи группы KORSAR разрешено перезаливать спустя 5 дней после публикации, с обязательным добавлением банера
  • Торрент
Для скачивания торрента необходимо зарегистрироваться или войти на трекер.

Сообщение filbi1976 » 20 апр 2019, 07:50

Супер! :10 balov: :-drinks:
Посмотреть товар в профиле пользователя

Нажмите на изображение, чтобы увидеть в полный размер  
1 шт.
Нажмите на изображение, чтобы увидеть в полный размер  
1 шт.
Нажмите на изображение, чтобы увидеть в полный размер  
1 шт.
Нажмите на изображение, чтобы увидеть в полный размер  
1 шт.
Нажмите на изображение, чтобы увидеть в полный размер  
1 шт.
Нажмите на изображение, чтобы увидеть в полный размер  
1 шт.
Нажмите на изображение, чтобы увидеть в полный размер  
1 шт.
Нажмите на изображение, чтобы увидеть в полный размер  
1 шт.
Нажмите на изображение, чтобы увидеть в полный размер  
1 шт.
Нажмите на изображение, чтобы увидеть в полный размер  
1 шт.
Нажмите на изображение, чтобы увидеть в полный размер  
1 шт.
Нажмите на изображение, чтобы увидеть в полный размер  
1 шт.
Нажмите на изображение, чтобы увидеть в полный размер  
1 шт.
Нажмите на изображение, чтобы увидеть в полный размер  
1 шт.
Нажмите на изображение, чтобы увидеть в полный размер  
1 шт.
КУБКИ

СТАЖ

МЕДАЛИ
Награды:120

За помощь проекту (3) За отличные раздачи и качество (76) За отличные комментарии (6) Почётный форумчанин (5) Верный Сид (27) За участие в конкурсах/играх (1)

Аватара пользователя
Тортуга
filbi1976
Администратор-Корсар

Сообщение lesnik125 » 20 апр 2019, 10:35

Сергей, на здоровье. :hi: :-drinks:
КУБКИ

СТАЖ

МЕДАЛИ
Награды:71

За помощь проекту (11) Лучший по количеству кубков (3) За отличные раздачи и качество (32) За подробное оформление раздач (2) За отличные комментарии (5) Почётный форумчанин (4) Верный Сид (12)

Аватара пользователя
СССР
lesnik125
Опытный Модератор-Корсар


Вернуться в Зарубежное кино (1991-2000 / HD Video)



Uptime по данным Ping-Admin.Ru - сервиса мониторинга доступности сайтов
Рейтинг@Mail.ru