logo
Международный русскоязычный
торрент-трекер
Menu
Doublon
Поделиться с друзьями: 
Голосуй за Корсар и получи 500 дублонов
Рейтинг торрент трекеров - UpTracker.ru

Дамбо / Dumbo (2019, фэнтези, семейный, BDRip 1080p) | 3D-Video | halfOU | Лицензия

Сообщение kisa1980 » 26 июл 2019, 16:28

Название: Дамбо
Оригинальное название: Dumbo
Год выпуска: 2019
Страна: США
Жанр: Фэнтези, семейный
Продолжительность: 01:51:57
Перевод: Профессиональный дублированный | Лицензия
Режиссер: Тим Бёртон
В ролях: Колин Фаррелл, Майкл Китон, Дэнни ДеВито, Ева Грин, Алан Аркин, Нико Паркер, Финли Хоббинс, Рошан Сет, Ларс Айдингер, Деобиа Опарей

Описание: Цирковой импресарио Макс Медичи назначает бывшую звезду цирка Холта Фэрриера и его детей Милли и Джо опекунами новорожденного слонёнка, чьи невероятно большие уши сразу становятся предметом для постоянных шуток и насмешек коллег Холта по цеху. Внезапно узнав, что Дамбо умеет летать, владелец цирка решает нажиться на необычных способностях слонёнка. К делу подключается энергичный предприниматель В. А. Вэндевер, который решает сделать из малыша Дамбо главную звезду своего нового грандиозного развлекательного предприятия «Сказочная страна».



Качество: BDRip 1080p
Контейнер: MKV
Формат 3D: Half OverUnder / Вертикальная анаморфная стереопара
Порядок ракурсов: левый ракурс первый
Видео: AVC / 1920х1080p / 23,976 fps / 14.0 Mbps
Аудио:
#1 - Русский / AC3 / 48 KHz / 5.1 ch / 640 Kbps (Дубляж - BD CEE)
#2 - Украинский / AC3 / 48 KHz / 5.1 ch / 640 Kbps (Дубляж) (Спасибо Hurtom!)
#3 - Английский / AC3 / 48 KHz / 5.1 ch / 640 Kbps (Original - BD 3D)
Субтитры (SRT):
Вшитые (softsub):
#1 - Русские Форсированные [вер. Ash61] (включены по умолчанию)
#2 - Русские Полные
#3 - Украинские Форсированные [вер. Ash61]
#4 - English Full
#5 - English SDH
Внешние (UTF-8):
#1 - Русские Форсированные [вер. Ash61] (включены по умолчанию)
#2 - Русские Полные
#3 - Украинские Форсированные [вер. Ash61]

С предложением сыграть в фильме обращались к Уиллу Смиту и Тому Хэнксу. Смит высказал заинтересованность, но отказался ради съёмок в фильме «Плохие парни 3». Вместо него взяли Колина Фаррелла. Хэнкса предполагалось взять на роль злодея, однако он предложение отклонил из-за занятости в других проектах.
Первая игровая перезагрузка мультипликационного фильма студии Disney, которая является совершенно самостоятельным произведением.
В фильме дважды исполняется марш Исаака Дунаевского, который был написан к фильму «Цирк».
General
Unique ID : 183838231136495582279459366113253706862 (0x8A4DF496DB678034A1EBF210AF12CC6E)
Complete name : J:Dumbo(2019)3D-hOU(Ash61)Dumbo(2019)3D-hOU(Ash61).mkv
Format : Matroska
Format version : Version 2
File size : 12.5 GiB
Duration : 1h 51mn
Overall bit rate : 15.9 Mbps
Movie name : Дамбо / Dumbo (2019) in 3D
Encoded date : UTC 2019-08-09 09:53:30
Writing application : mkvmerge v5.8.0 ('No Sleep / Pillow') built on Sep 2 2012 15:37:04
Writing library : libebml v1.2.3 + libmatroska v1.3.0

Video
ID : 1
Format : AVC
Format/Info : Advanced Video Codec
Format profile : High@L4.1
Format settings, CABAC : Yes
Format settings, ReFrames : 4 frames
Codec ID : V_MPEG4/ISO/AVC
Duration : 1h 51mn
Bit rate : 14.0 Mbps
Width : 1 920 pixels
Height : 1 080 pixels
Display aspect ratio : 16:9
Frame rate mode : Constant
Frame rate : 23.976 (24000/1001) fps
Color space : YUV
Chroma subsampling : 4:2:0
Bit depth : 8 bits
Scan type : Progressive
Bits/(Pixel*Frame) : 0.282
Stream size : 10.7 GiB (86%)
Title : BDRip by Ash61
Writing library : x264 core 146 r2538 121396c
Encoding settings : cabac=1 / ref=4 / deblock=1:-3:-3 / analyse=0x3:0x113 / me=umh / subme=10 / psy=1 / psy_rd=1.00:0.00 / mixed_ref=1 / me_range=32 / chroma_me=1 / trellis=2 / 8x8dct=1 / cqm=0 / deadzone=21,11 / fast_pskip=0 / chroma_qp_offset=-2 / threads=12 / lookahead_threads=3 / sliced_threads=0 / nr=0 / decimate=0 / interlaced=0 / bluray_compat=0 / constrained_intra=0 / bframes=10 / b_pyramid=2 / b_adapt=2 / b_bias=0 / direct=3 / weightb=1 / open_gop=0 / weightp=2 / keyint=250 / keyint_min=23 / scenecut=40 / intra_refresh=0 / rc_lookahead=60 / rc=2pass / mbtree=0 / bitrate=14000 / ratetol=1.0 / qcomp=0.70 / qpmin=0 / qpmax=69 / qpstep=4 / cplxblur=20.0 / qblur=0.5 / vbv_maxrate=40000 / vbv_bufsize=30000 / nal_hrd=none / filler=0 / frame-packing=4 / ip_ratio=1.40 / pb_ratio=1.30 / aq=1:0.70
Language : English
Default : Yes
Forced : No

Audio #1
ID : 2
Format : AC-3
Format/Info : Audio Coding 3
Mode extension : CM (complete main)
Format settings, Endianness : Big
Codec ID : A_AC3
Duration : 1h 51mn
Bit rate mode : Constant
Bit rate : 640 Kbps
Channel(s) : 6 channels
Channel positions : Front: L C R, Side: L R, LFE
Sampling rate : 48.0 KHz
Frame rate : 31.250 fps (1536 spf)
Compression mode : Lossy
Stream size : 512 MiB (4%)
Title : Дубляж (BD CEE)
Language : Russian
Default : Yes
Forced : No

Audio #2
ID : 3
Format : AC-3
Format/Info : Audio Coding 3
Mode extension : CM (complete main)
Format settings, Endianness : Big
Codec ID : A_AC3
Duration : 1h 51mn
Bit rate mode : Constant
Bit rate : 640 Kbps
Channel(s) : 6 channels
Channel positions : Front: L C R, Side: L R, LFE
Sampling rate : 48.0 KHz
Frame rate : 31.250 fps (1536 spf)
Compression mode : Lossy
Stream size : 512 MiB (4%)
Title : Дубляж
Language : Ukrainian
Default : No
Forced : No

Audio #3
ID : 4
Format : AC-3
Format/Info : Audio Coding 3
Mode extension : CM (complete main)
Format settings, Endianness : Big
Codec ID : A_AC3
Duration : 1h 51mn
Bit rate mode : Constant
Bit rate : 640 Kbps
Channel(s) : 6 channels
Channel positions : Front: L C R, Side: L R, LFE
Sampling rate : 48.0 KHz
Frame rate : 31.250 fps (1536 spf)
Compression mode : Lossy
Stream size : 512 MiB (4%)
Title : Original (BD 3D Eur)
Language : English
Default : No
Forced : No

Text #1
ID : 5
Format : UTF-8
Codec ID : S_TEXT/UTF8
Codec ID/Info : UTF-8 Plain Text
Title : Форсированные [вер. Ash61]
Language : Russian
Default : Yes
Forced : No

Text #2
ID : 6
Format : UTF-8
Codec ID : S_TEXT/UTF8
Codec ID/Info : UTF-8 Plain Text
Title : Полные
Language : Russian
Default : No
Forced : No

Text #3
ID : 7
Format : UTF-8
Codec ID : S_TEXT/UTF8
Codec ID/Info : UTF-8 Plain Text
Title : Форсированные [вер. Ash61]
Language : Ukrainian
Default : No
Forced : No

Text #4
ID : 8
Format : UTF-8
Codec ID : S_TEXT/UTF8
Codec ID/Info : UTF-8 Plain Text
Title : Full
Language : English
Default : No
Forced : No

Text #5
ID : 9
Format : UTF-8
Codec ID : S_TEXT/UTF8
Codec ID/Info : UTF-8 Plain Text
Title : SDH
Language : English
Default : No
Forced : No

Menu
00:00:00.000 : : 1. Casey Jr.'s Back
00:02:49.461 : : 2. Homecoming
00:06:46.072 : : 3. Medici's Investment
00:11:23.766 : : 4. Baby Jumbo
00:16:33.993 : : 5. Welcome to the Circus
00:19:20.493 : : 6. Under the Big Top
00:26:08.233 : : 7. "Baby Mine"
00:27:46.331 : : 8. Goodbye, Mrs. Jumbo
00:31:07.783 : : 9. Magic Feather
00:35:09.024 : : 10. "Fly, Dumbo, Fly!"
00:40:44.984 : : 11. V. A. Vandevere
00:46:44.927 : : 12. Dreamland
00:50:23.938 : : 13. Preparing for Takeoff
00:57:15.265 : : 14. Pink Elephants
01:01:53.126 : : 15. Queen of the Heavens
01:07:18.785 : : 16. Nightmare Island
01:10:11.666 : : 17. Separated Again
01:14:47.858 : : 18. The Troupe Unites
01:18:05.055 : : 19. One Last Time
01:27:55.896 : : 20. The Rescue
01:37:09.532 : : 21. Saying Goodbye
01:39:41.100 : : 22. Anything Is Possible
01:44:02.611 : : 23. End Credits



















КУБКИ

СТАЖ

МЕДАЛИ
Награды:102

За активную помощь проекту (12) Лучший по количеству кубков (3) За отличные раздачи и качество (38) За подробное оформление раздач (7) За отличные комментарии (9) Почётный форумчанин (2) Верный Сид (28) За участие в конкурсах/играх (2)

Аватара пользователя
Тортуга
kisa1980
Главный помощник Администратора-Корсар
  • Торрент
Для скачивания торрента необходимо зарегистрироваться или войти на трекер.

Вернуться в Фильмы 3D (3D Video)



Uptime по данным Ping-Admin.Ru - сервиса мониторинга доступности сайтов
Рейтинг@Mail.ru