logo
Международный русскоязычный
торрент-трекер
Menu

Магазин-KorsaRDoublon
Поделиться с друзьями: 
Голосуй за Корсар и получай дублоны
Рейтинг торрент трекеров - UpTracker.ru

Daft Punk. Освобожденные / Daft Punk. Unchained (2015, Документальное видео, музыка, BDRip 1080p)

Сообщение Korsar » 23 ноя 2016, 04:27



Информация о фильме
Название: Daft Punk. Освобожденные. (Легенда)
Оригинальное название: Daft Punk. Unchained. + Bonus
Год выхода: 2015
Жанр: Документальное видео, музыка
Режиссер: Эрве Мартин-Дельпьерр
В ролях: Pete Tong, Skrillex, Leiji Matsumoto, Kanye West, Giorgio Moroder, Pharrell Williams, Nile Rodgers и другие.

Фильм рассказывает об истории становлении легендарного французского электронного дуэта Daft Punk, о переломных моментах в его карьере и содержит интервью людей, которым посчастливилось работать с группой за последние 20 лет.



Страна: Франция
Продолжительность: 01:23:59+00:20:15+00:05:13ч.
Перевод: Многоголосый, закадровый, профессиональный

Файл
Кодек: h264
Качество: BDRip 1080p.
Видео: 1920x1080p., 6750 кбит./сек., 25.000 кадр./сек.
Звук: AC3, 256 кбит./сек., стерео (Русский)
AC3, 448 кбит./сек., 5.1 (Французский)
Субтитры: Английские (на французскую речь),
Французские


Общее
Уникальный идентификатор : 186925338950697740533574268373525575792 (0x8CA082C17E887AFC8B906318DC6FB870)
Полное имя : D:Торрент файлыDaft Punk. UnchainedDaft Punk. Unchained.mkv
Формат : Matroska
Версия формата : Version 4 / Version 2
Размер файла : 4,37 Гбайт
Продолжительность : 1 ч. 23 м.
Общий поток : 7455 Кбит/сек
Дата кодирования : UTC 2016-03-07 18:17:42
Программа кодирования : mkvmerge v8.8.0 ('Wind at my back') 64bit
Библиотека кодирования : libebml v1.3.3 + libmatroska v1.4.4
DURATION : 01:23:17.119000000
NUMBER_OF_FRAMES : 447
NUMBER_OF_BYTES : 17259
_STATISTICS_WRITING_APP : mkvmerge v8.8.0 ('Wind at my back') 64bit
_STATISTICS_WRITING_DATE_UTC : 2016-03-07 18:17:42
_STATISTICS_TAGS : BPS DURATION NUMBER_OF_FRAMES NUMBER_OF_BYTES

Видео
Идентификатор : 1
Формат : AVC
Формат/Информация : Advanced Video Codec
Профиль формата : High@L4.1
Параметр CABAC формата : Да
Параметр ReFrames формата : 4 кадра
Идентификатор кодека : V_MPEG4/ISO/AVC
Продолжительность : 1 ч. 23 м.
Битрейт : 6750 Кбит/сек
Ширина : 1920 пикселей
Высота : 1080 пикселей
Соотношение сторон : 16:9
Режим частоты кадров : Постоянный
Частота кадров : 25,000 кадров/сек
Цветовое пространство : YUV
Субдискретизация насыщенности : 4:2:0
Битовая глубина : 8 бит
Тип развёртки : Прогрессивная
Бит/(Пиксели*Кадры) : 0.130
Размер потока : 3,87 Гбайт (89%)
Библиотека кодирования : x264 core 148 r2638M 7599210
Настройки программы : cabac=1 / ref=4 / deblock=1:1:1 / analyse=0x3:0x133 / me=tesa / subme=10 / psy=0 / mixed_ref=0 / me_range=32 / chroma_me=1 / trellis=2 / 8x8dct=1 / cqm=0 / deadzone=21,11 / fast_pskip=0 / chroma_qp_offset=0 / threads=7 / lookahead_threads=1 / sliced_threads=0 / nr=15 / decimate=1 / interlaced=0 / bluray_compat=0 / constrained_intra=0 / bframes=4 / b_pyramid=2 / b_adapt=2 / b_bias=0 / direct=3 / weightb=0 / open_gop=0 / weightp=2 / keyint=250 / keyint_min=25 / scenecut=40 / intra_refresh=0 / rc=2pass / mbtree=0 / bitrate=6750 / ratetol=1.0 / qcomp=0.70 / qpmin=3 / qpmax=69 / qpstep=4 / cplxblur=20.0 / qblur=0.5 / ip_ratio=1.40 / pb_ratio=1.30 / aq=2:0.60
Язык : French
Default : Да
Forced : Нет
DURATION : 01:23:58.600000000
NUMBER_OF_FRAMES : 125963
NUMBER_OF_BYTES : 4250866338
_STATISTICS_WRITING_APP : mkvmerge v8.8.0 ('Wind at my back') 64bit
_STATISTICS_WRITING_DATE_UTC : 2016-03-07 18:17:42
_STATISTICS_TAGS : BPS DURATION NUMBER_OF_FRAMES NUMBER_OF_BYTES

Аудио #1
Идентификатор : 2
Формат : AC-3
Формат/Информация : Audio Coding 3
Расширение режима : CM (complete main)
Параметр Endianness формата : Big
Идентификатор кодека : A_AC3
Продолжительность : 1 ч. 23 м.
Вид битрейта : Постоянный
Битрейт : 256 Кбит/сек
Каналы : 2 канала
Расположение каналов : Front: L R
Частота : 48,0 КГц
Битовая глубина : 16 бит
Метод сжатия : С потерями
Размер потока : 154 Мбайт (3%)
Язык : Russian
Default : Да
Forced : Нет

Аудио #2
Идентификатор : 3
Формат : AC-3
Формат/Информация : Audio Coding 3
Расширение режима : CM (complete main)
Параметр Endianness формата : Big
Идентификатор кодека : A_AC3
Продолжительность : 1 ч. 23 м.
Вид битрейта : Постоянный
Битрейт : 448 Кбит/сек
Каналы : 6 каналов
Расположение каналов : Front: L C R, Side: L R, LFE
Частота : 48,0 КГц
Битовая глубина : 16 бит
Метод сжатия : С потерями
Размер потока : 269 Мбайт (6%)
Язык : English
Default : Нет
Forced : Нет

Текст
Идентификатор : 4
Формат : UTF-8
Идентификатор кодека : S_TEXT/UTF8
Идентификатор кодека/Информация : UTF-8 Plain Text
Язык : English
Default : Да
Forced : Нет

Автор рипа: daftsl1988

Боцман
Аватара пользователя
Korsar
Помощник Администратора-Корсар
 
 

Награды: 16
За отличные раздачи и качество (8) За участие в конкурсах (2) Верный Сид (5)
  • Торрент
Для скачивания торрента необходимо зарегистрироваться или войти на трекер.

Вернуться в Музыка (HD Video)



Uptime по данным Ping-Admin.Ru - сервиса мониторинга доступности сайтов