logo
Международный русскоязычный
торрент-трекер
Menu
"Бунт на корабле", за скачанные торрент-файлы дублоны не снимаются. Возможность оплачена пользователем glazik9090.
Doublon
Поделиться с друзьями: 
Голосуй за Корсар и получи 500 дублонов
Рейтинг торрент трекеров - UpTracker.ru

Чужая (2010, драма, криминал, DVDRip-AVC)

Сообщение dmsushko » 11 мар 2019, 13:32

Название: Чужая
Год выпуска: 2010
Жанр: Драма, криминал
Режиссёр: Антон Борматов
В ролях: Наталья Романычева, Кирилл Полухин, Евгений Ткачук, Анатолий Отраднов, Александр Голубков, Евгений Мундум, Олег Байкулов, Александр Корчагин, Дмитрий Ратомский, Сергей Сипливый

О фильме: Украина, сентябрь 1993 года. Четыре бандита получают задание доставить из Праги девушку по кличке "Чужая". Она - сестра Бабая, чьи показания могут навредить их главарю.


Выпущено: Россия, Профит, Красный квадрат
Продолжительность: 01:44:10

Видео кодек: x264
Качество: DVDRip-AVC
Видео: H.264 AVC, 720x552@1024x552 (1.85:1), 25.000 fps, 2 393 Kbps (0.241 bit/pixel)
Битрейт аудио: AC-3, 48.0 KHz, 6 ch, 384 Kbps, CBR (Russian)


General
Unique ID : 205098305975919217948168755521141137020 (0x9A4C7F34FBBD27BDBBCD2700FE70DE7C)
Complete name : D:\Видео\ФИЛЬМЫ RUS\Чужая (Антон Борматов) [2010, драма, криминал, DVDRip-AVC].mkv
Format : Matroska
Format version : Version 4
File size : 2.09 GiB
Duration : 1 h 44 min
Overall bit rate : 2 871 kb/s
Movie name : Чужая (2010)
Encoded date : UTC 2019-03-15 02:11:34
Writing application : mkvmerge v6.9.1 ('Blue Panther') 32bit built on Apr 18 2014 18:15:44
Writing library : libebml v1.3.0 + libmatroska v1.4.1
Cover : Yes
Attachments : x264.log / cover.jpg

Video
ID : 1
Format : AVC
Format/Info : Advanced Video Codec
Format profile : High@L4.1
Format settings : CABAC / 12 Ref Frames
Format settings, CABAC : Yes
Format settings, ReFrames : 12 frames
Codec ID : V_MPEG4/ISO/AVC
Duration : 1 h 44 min
Bit rate : 2 393 kb/s
Width : 720 pixels
Height : 552 pixels
Display aspect ratio : 1.85:1
Frame rate mode : Constant
Frame rate : 25.000 FPS
Color space : YUV
Chroma subsampling : 4:2:0
Bit depth : 8 bits
Scan type : Progressive
Bits/(Pixel*Frame) : 0.241
Stream size : 1.77 GiB (85%)
Writing library : x264 core 157 r2969 d4099dd
Encoding settings : cabac=1 / ref=12 / deblock=1:-1:-1 / analyse=0x3:0x133 / me=esa / subme=11 / psy=1 / psy_rd=1.00:0.15 / mixed_ref=1 / me_range=48 / chroma_me=1 / trellis=2 / 8x8dct=1 / cqm=0 / deadzone=21,11 / fast_pskip=1 / chroma_qp_offset=-3 / threads=6 / lookahead_threads=1 / sliced_threads=0 / nr=0 / decimate=1 / interlaced=0 / bluray_compat=0 / constrained_intra=0 / bframes=8 / b_pyramid=2 / b_adapt=2 / b_bias=0 / direct=3 / weightb=1 / open_gop=0 / weightp=2 / keyint=250 / keyint_min=25 / scenecut=40 / intra_refresh=0 / rc_lookahead=60 / rc=2pass / mbtree=1 / bitrate=2393 / ratetol=1.0 / qcomp=0.60 / qpmin=0 / qpmax=69 / qpstep=4 / cplxblur=20.0 / qblur=0.5 / vbv_maxrate=17500 / vbv_bufsize=14000 / nal_hrd=none / filler=0 / ip_ratio=1.40 / aq=1:1.00
Language : Russian
Default : Yes
Forced : No

Audio
ID : 2
Format : AC-3
Format/Info : Audio Coding 3
Commercial name : Dolby Digital
Codec ID : A_AC3
Duration : 1 h 44 min
Bit rate mode : Constant
Bit rate : 384 kb/s
Channel(s) : 6 channels
Channel layout : L R C LFE Ls Rs
Sampling rate : 48.0 kHz
Frame rate : 31.250 FPS (1536 SPF)
Bit depth : 16 bits
Compression mode : Lossy
Stream size : 286 MiB (13%)
Language : Russian
Service kind : Complete Main
Default : Yes
Forced : No

Menu
00:00:00.000 : ru:Глава 01
00:04:46.800 : ru:Глава 02
00:10:52.800 : ru:Глава 03
00:14:42.600 : ru:Глава 04
00:21:11.400 : ru:Глава 05
00:25:42.000 : ru:Глава 06
00:30:10.200 : ru:Глава 07
00:37:11.400 : ru:Глава 08
00:40:36.000 : ru:Глава 09
00:48:31.200 : ru:Глава 10
00:55:33.600 : ru:Глава 11
01:00:52.200 : ru:Глава 12
01:08:02.400 : ru:Глава 13
01:11:57.600 : ru:Глава 14
01:18:40.200 : ru:Глава 15
01:26:40.200 : ru:Глава 16
01:30:54.600 : ru:Глава 17
01:39:10.200 : ru:Глава 18

x264 [info]: frame I:966 Avg QP:15.28 size: 60811
x264 [info]: frame P:35660 Avg QP:18.01 size: 26021
x264 [info]: frame B:126750 Avg QP:20.37 size: 7637
x264 [info]: consecutive B-frames: 1.9% 3.4% 10.3% 14.1% 12.4% 49.1% 5.1% 1.5% 2.2%
x264 [info]: ref P L0: 40.8% 9.1% 18.6% 6.3% 6.7% 4.2% 4.2% 2.0% 2.4% 1.9% 2.1% 1.6% 0.1% 0.0%
x264 [info]: kb/s:2392.80
x264 [total]: encoded 163376 frames, 3.10 fps, 2392.80 kb/s
Последний раз редактировалось dmsushko 15 мар 2019, 05:53, всего редактировалось 3 раз(а).
КУБКИ

СТАЖ

МЕДАЛИ
Награды:26

Лучший по количеству кубков (1) За отличные раздачи и качество (1) За подробное оформление раздач (1) Верный Сид (18)

Аватара пользователя
Russia
dmsushko
Релизёр-Корсар
  • Торрент
Для скачивания торрента необходимо зарегистрироваться или войти на трекер.

Сообщение Uhtq » 11 мар 2019, 16:17

автору, большое спасибо за раздачу! :10 balov:
меня этот фильм очень впечатлил. один из лучших, что я посмотрел в этом году. пусть и с опозданием.
многие пишут про 90-е, ту атмосферу, и т.д. и т.п. но сюжет фильма хорош тем, что эта история могла произойти и в нулевые и в наше время.
Фильм удался. Для меня он был жестковат, но было интересно смотреть. :hi:
КУБКИ

СТАЖ

МЕДАЛИ
Награды:4

За отличные комментарии (4)

Аватара пользователя
Russia
Uhtq
Опытный Корсар

Сообщение dmsushko » 15 мар 2019, 05:57

Korsar писал(а):Настройки кодирования подтянуть непомешало бы.

filbi1976 писал(а):По поводу данной раздачи, то остаётся со статусом недооформленная на переделку.
Плюс советую обратить внимание на анаморфное кодирование при котором сохраняются все заложенные строки в исходник, а не занижать качество рипов ресайзом.


Рип переделал, ориентируясь на мин.требования и рекомендации.
КУБКИ

СТАЖ

МЕДАЛИ
Награды:26

Лучший по количеству кубков (1) За отличные раздачи и качество (1) За подробное оформление раздач (1) Верный Сид (18)

Аватара пользователя
Russia
dmsushko
Релизёр-Корсар

Сообщение kwazar312 » 15 мар 2019, 10:42

Уважаемые dmsushko,большое спасибо ВАМ за хороший фильм.
Несмотря на эффектные перестрелки и потоки крови, фильм «Чужая» не про бандитов. А про женщину. Бегущую к своему счастью по кровавым волнам, с вдохновением и хладнокровием, достойными иного применения. Выбор темы и трактовка центрального (и единственного…) женского образа картины симптоматичны. «Чужой» героиню прозвали не случайно — она поражает бесчеловечностью даже коллег за что и получает это «погоняло» в честь существа, порождённого Ридли Скоттом.
Этот российский фильм по одноимённой книге Владимира Нестеренко.
КУБКИ

СТАЖ

МЕДАЛИ
Награды:92

За помощь проекту (9) Лучший по количеству кубков (24) За отличные комментарии (17) Верный Сид (36) За участие в конкурсах/играх (6)

Аватара пользователя
kwazar312
Заслуженный Корсар-Вип


Вернуться в Наше современное кино



Uptime по данным Ping-Admin.Ru - сервиса мониторинга доступности сайтов
Рейтинг@Mail.ru