logo
Международный русскоязычный
торрент-трекер
Menu
"Бунт на корабле", за скачанные торрент-файлы дублоны не снимаются. Возможность оплачена пользователем Пельцер Дмитрий.
Doublon
Поделиться с друзьями: 
Голосуй за Корсар и получи 500 дублонов
Рейтинг торрент трекеров - UpTracker.ru

Чужак / The Outsider / Сезон: 01 / Серии: 01-10 из 10 (2020, триллер, детектив, криминал, WEB-DL 1080p) | AlexFilm

Сообщение kisa1980 » 17 янв 2020, 02:01

Название: Чужак
Оригинальное название: The Outsider
Год выхода: 2020
Жанр: Триллер, детектив, криминал
Режиссер: Эндрю Бернштейн, Джейсон Бейтман, Шарлотта Брандстром
В ролях: Юл Васкес, Джейсон Бейтман, Джереми Бобб, Синтиа Эриво, Джон Геттье, Марк Менчака, Бен Мендельсон, Джулианна Николсон, Дерек Сесил, Билл Кэмп

О фильме: Экранизаций Стивена Кинга много не бывает. «Чужак» — сериал из вселенной «Мистера Мерседеса», мрачная, как и полагается, история убийства 11-летнего мальчика, которое расследует детектив Ральф Андерсон в исполнении Бена Мендельсона («Темный рыцарь: Возрождение легенды»). Все улики указывают на тренера детской бейсбольной команды Терри Мейтленда (Джейсон Бейтман из «Озарка»), однако после ареста выясняется, что у него есть железное алиби. Напряженный сюжет, уникальный почерк Кинга и отличный каст —зрителей ждет увлекательный и атмосферный триллер.



Страна: США
Студия: Aggregate Films, Media Rights Capital
Продолжительность: 10х ~ 01:00:00
Перевод: Профессиональный (многоголосый, закадровый) | AlexFilm

Качество: WEB-DL 1080p
Формат: Matroska
Видео: 1920x1080 at 23.976 fps, MPEG-4 AVC, ~6500 kbps avg
Аудио 1: Russian: 48 kHz, AC3, 3/2 (L,C,R,l,r) + LFE ch, ~384 kbps avg |AlexFilm|
Аудио 2: English: 48 kHz, E-AC3, 3/2 (L,C,R,l,r) + LFE ch, ~640 kbps avg |Оригинал|
Субтитры: Русские (Full |«Amedia»), английские (SDH)

Общее
Уникальный идентификатор : 227552138802288223158389129658455543374 (0xAB30F2A335745983BCA07CC584E7CE4E)
Полное имя : D:\The Outsider (Season 1) WEB-DL 1080p \The.Outsider.S01E01.1080p.AMZN.WEB-DL.RGzsRutracker.[Wentworth_Miller]-NTb.mkv
Формат : Matroska
Версия формата : Version 4
Размер файла : 3,20 Гбайт
Продолжительность : 1 ч. 0 м.
Общий поток : 7540 Кбит/сек
Название фильма : The Outsider 1x01 (Рыба в бочке / Fish in a Barrel) - Release by Wentworth_Miller
Дата кодирования : UTC 2020-01-25 11:07:32
Программа кодирования : mkvmerge v10.0.0 ('To Drown In You') 64bit
Библиотека кодирования : libebml v1.3.4 + libmatroska v1.4.5

Видео
Идентификатор : 1
Формат : AVC
Формат/Информация : Advanced Video Codec
Профиль формата : High@L4
Настройки формата : CABAC / 4 Ref Frames
Параметр CABAC формата : Да
Параметр RefFrames формата : 4 кадра
Идентификатор кодека : V_MPEG4/ISO/AVC
Продолжительность : 1 ч. 0 м.
Вид битрейта : Постоянный
Битрейт : 6514 Кбит/сек
Номинальный битрейт : 10000 Кбит/сек
Ширина : 1920 пикселей
Высота : 1080 пикселей
Соотношение сторон : 16:9
Режим частоты кадров : Постоянный
Частота кадров : 23,976 (24000/1001) кадра/сек
Цветовое пространство : YUV
Субдискретизация насыщенности : 4:2:0
Битовая глубина : 8 бит
Тип развёртки : Прогрессивная
Бит/(Пиксели*Кадры) : 0.131
Размер потока : 2,77 Гбайт (86%)
Язык : English
Default : Да
Forced : Нет
Цветовой диапазон : Limited
Основные цвета : BT.709
Характеристики трансфера : BT.709
Коэффициенты матрицы : BT.709

Аудио #1
Идентификатор : 2
Формат : AC-3
Формат/Информация : Audio Coding 3
Коммерческое название : Dolby Digital
Идентификатор кодека : A_AC3
Продолжительность : 1 ч. 0 м.
Вид битрейта : Постоянный
Битрейт : 384 Кбит/сек
Каналы : 6 каналов
ChannelLayout : L R C LFE Ls Rs
Частота : 48,0 КГц
Частота кадров : 31,250 кадров/сек (1536 SPF)
Метод сжатия : С потерями
Размер потока : 167 Мбайт (5%)
Заголовок : AlexFilm 5.1
Язык : Russian
ServiceKind/String : Complete Main
Default : Да
Forced : Нет

Аудио #2
Идентификатор : 3
Формат : E-AC-3
Формат/Информация : Enhanced AC-3
Коммерческое название : Dolby Digital Plus
Идентификатор кодека : A_EAC3
Продолжительность : 1 ч. 0 м.
Вид битрейта : Постоянный
Битрейт : 640 Кбит/сек
Каналы : 6 каналов
ChannelLayout : L R C LFE Ls Rs
Частота : 48,0 КГц
Частота кадров : 31,250 кадров/сек (1536 SPF)
Метод сжатия : С потерями
Задержка видео : 8 мс.
Размер потока : 278 Мбайт (8%)
Язык : English
ServiceKind/String : Complete Main
Default : Нет
Forced : Нет

Текст #1
Идентификатор : 4
Формат : UTF-8
Идентификатор кодека : S_TEXT/UTF8
Идентификатор кодека/Информация : UTF-8 Plain Text
Продолжительность : 55 м. 9 с.
Битрейт : 98 бит/сек
ElementCount : 568
Размер потока : 39,8 Кбайт (0%)
Язык : Russian
Default : Нет
Forced : Нет

Текст #2
Идентификатор : 5
Формат : UTF-8
Идентификатор кодека : S_TEXT/UTF8
Идентификатор кодека/Информация : UTF-8 Plain Text
Продолжительность : 1 ч. 0 м.
Битрейт : 67 бит/сек
ElementCount : 866
Размер потока : 29,9 Кбайт (0%)
Заголовок : SDH
Язык : English
Default : Нет
Forced : Нет
КУБКИ

СТАЖ

МЕДАЛИ
Награды:108

За активную помощь проекту (12) Лучший по количеству кубков (3) За отличные раздачи и качество (41) За подробное оформление раздач (8) За отличные комментарии (10) Почётный форумчанин (3) Верный Сид (28) За участие в конкурсах/играх (2)

Аватара пользователя
Тортуга
kisa1980
Главный помощник Администратора-Корсар
  • Торрент
Для скачивания торрента необходимо зарегистрироваться или войти на трекер.

Вернуться в Зарубежные сериалы (HD Video)



Uptime по данным Ping-Admin.Ru - сервиса мониторинга доступности сайтов
Рейтинг@Mail.ru