logo
Международный русскоязычный
торрент-трекер
Menu
Doublon
Поделиться с друзьями: 
Голосуй за Корсар и получи 500 дублонов
Рейтинг торрент трекеров - UpTracker.ru

Чудовище / L'animal (1977, Комедия, BDRip 1080p)

Сообщение al1ksandr » 09 окт 2019, 20:19

Название: Чудовище
Оригинальное название: L'animal
Год выпуска: 1977
Жанр: Комедия
Режиссер: Клод Зиди
В ролях: Жан Поль Бельмондо, Клод Шаброль, Шарль Жерар, Ив Мороси, Джонни Халлидей, Джейн Биркин, Раймон Жером, Дани Саваль, Рэкел Уэлч, Марио Давид

Описание: У каскадера Мишеля Гоше чудовищный характер. Поэтому ни одна киностудия не хочет иметь с ним дела, а невеста готова бежать из-под венца. Но вот, в Париж на съемки приезжает известный актер Бруно Феррари. В его новом фильме — сплошные трюки, один сложнее другого. И совершенно ясно, что с ними не справиться никому, кроме Мишеля. Стоит ли говорить о том, что актер и каскадер похожи друг на друга, как близнецы-братья?



Страна: Франция
Продолжительность: 01:40:30
Перевод: Профессиональный (полное дублирование), Профессиональный (двухголосый закадровый)

Качество: BDRip 1080p
Формат: MKV
Видео кодек: x264
Аудио кодек: AC3
Видео: MPEG4 Video (H264), 1920x816, 24fps, 12.0 Mbps
Аудио #1: Dolby AC3, 48000 Hz, 2ch, 192 kbps - Советский дубляж
Аудио #2: Dolby AC3, 48000 Hz, 2ch, 192 kbps - Двухголосый
Аудио #3: Dolby AC3, 48000 Hz, 2ch, 192 kbps - Французский

General
Unique ID : 172165902242881044189046618960942150676 (0x8185F257DD3B05FC8F6BAB4168153414)
Complete name : D:Torrent21977.L.animal.likko.mkv
Format : Matroska
Format version : Version 4
File size : 8.92 GiB
Duration : 1 h 40 min
Overall bit rate : 12.7 Mb/s
Movie name : 1977 Чудовище/likko
Encoded date : UTC 2019-10-09 16:55:22
Writing application : mkvmerge v8.3.0 ('Over the Horizon') 64bit
Writing library : libebml v1.3.1 + libmatroska v1.4.2

Video
ID : 1
Format : AVC
Format/Info : Advanced Video Codec
Format profile : High@L4.1
Format settings : CABAC / 5 Ref Frames
Format settings, CABAC : Yes
Format settings, Reference : 5 frames
Codec ID : V_MPEG4/ISO/AVC
Duration : 1 h 40 min
Bit rate : 12.0 Mb/s
Width : 1 920 pixels
Height : 816 pixels
Display aspect ratio : 2.35:1
Frame rate mode : Constant
Frame rate : 24.000 FPS
Color space : YUV
Chroma subsampling : 4:2:0
Bit depth : 8 bits
Scan type : Progressive
Bits/(Pixel*Frame) : 0.319
Stream size : 8.42 GiB (94%)
Title : 1977 Чудовище
Writing library : x264 core 148 r2638 7599210
Encoding settings : cabac=1 / ref=5 / deblock=1:-1:-1 / analyse=0x3:0x133 / me=umh / subme=11 / psy=1 / psy_rd=1.00:0.15 / mixed_ref=1 / me_range=48 / chroma_me=1 / trellis=2 / 8x8dct=1 / cqm=0 / deadzone=21,11 / fast_pskip=0 / chroma_qp_offset=-3 / threads=18 / lookahead_threads=4 / sliced_threads=0 / nr=0 / decimate=1 / interlaced=0 / bluray_compat=0 / constrained_intra=0 / bframes=10 / b_pyramid=2 / b_adapt=2 / b_bias=0 / direct=3 / weightb=1 / open_gop=0 / weightp=2 / keyint=250 / keyint_min=23 / scenecut=40 / intra_refresh=0 / rc=2pass / mbtree=0 / bitrate=12000 / ratetol=1.0 / qcomp=0.60 / qpmin=0 / qpmax=69 / qpstep=4 / cplxblur=20.0 / qblur=0.5 / ip_ratio=1.40 / pb_ratio=1.30 / aq=2:1.00
Language : French
Default : Yes
Forced : No

Audio #1
ID : 2
Format : AC-3
Format/Info : Audio Coding 3
Commercial name : Dolby Digital
Codec ID : A_AC3
Duration : 1 h 40 min
Bit rate mode : Constant
Bit rate : 256 kb/s
Channel(s) : 2 channels
Channel layout : L R
Sampling rate : 48.0 kHz
Frame rate : 31.250 FPS (1536 SPF)
Compression mode : Lossy
Stream size : 184 MiB (2%)
Title : Дубляж
Language : Russian
Service kind : Complete Main
Default : Yes
Forced : No

Audio #2
ID : 3
Format : AC-3
Format/Info : Audio Coding 3
Commercial name : Dolby Digital
Codec ID : A_AC3
Duration : 1 h 40 min
Bit rate mode : Constant
Bit rate : 256 kb/s
Channel(s) : 2 channels
Channel layout : L R
Sampling rate : 48.0 kHz
Frame rate : 31.250 FPS (1536 SPF)
Compression mode : Lossy
Stream size : 184 MiB (2%)
Title : Двухголосый
Language : Russian
Service kind : Complete Main
Default : No
Forced : No

Audio #3
ID : 4
Format : AC-3
Format/Info : Audio Coding 3
Commercial name : Dolby Digital
Codec ID : A_AC3
Duration : 1 h 40 min
Bit rate mode : Constant
Bit rate : 192 kb/s
Channel(s) : 2 channels
Channel layout : L R
Sampling rate : 48.0 kHz
Frame rate : 31.250 FPS (1536 SPF)
Compression mode : Lossy
Stream size : 138 MiB (2%)
Language : French
Service kind : Complete Main
Default : No
Forced : No

Menu
00:00:00.000 : en:Chapter 01
00:08:44.250 : en:Chapter 02
00:18:11.666 : en:Chapter 03
00:27:17.875 : en:Chapter 04
00:35:50.750 : en:Chapter 05
00:45:33.291 : en:Chapter 06
00:53:34.000 : en:Chapter 07
01:02:57.541 : en:Chapter 08
01:11:34.708 : en:Chapter 09
01:22:39.958 : en:Chapter 10
01:29:49.375 : en:Chapter 11
01:37:44.541 : en:Chapter 12



Роли дублируют:
Мишель Гоше, Бруно Феррари (Жан-Поль Бельмондо) - Николай Караченцев
Джейн Гарднер (Рэкуэл Уэлш) - Лариса Данилина
Серджио Компане (Альдо Мацционе) - Александр Белявский
Фешнер (Жюльен Гийомар) - Феликс Яворский
Ясент (Шарль Жерар) - Юрий Саранцев
Граф (Раймон Жером) - Владимир Дружников
Постановщик (Клод Шаброль) - Владимир Балашов
Журналист (Ив Мурузи) - Артем Карапетян

Занимает 42-е место по посещаемости среди зарубежных фильмов в советском кинопрокате.
Большинство каскадёрских трюков в фильме Бельмондо исполнял сам. Это стоило ему многочисленных травм: вывих лодыжки после сцены на ступенях Сакр-Кёр, вывих и проникающая рана после сцены скатывания по лестнице, пожёванное ухо после сцены схватки с тигром. Поскольку страховые компании отказывались страховать авиатрюки — их пришлось снимать последними. Всё прошло без инцидентов, а актёр смог реализовать свою детскую мечту — лично постоять на крыле летящего самолёта.

Награды:
1978: Премия «Золотой экран», Германия

Релиз: likko
КУБКИ

СТАЖ

МЕДАЛИ
Награды:70

За активную помощь проекту (3) Лучший по количеству кубков (15) За отличные раздачи и качество (6) За отличные комментарии (13) Почётный форумчанин (28) Верный Сид (1) За участие в конкурсах/играх (2)

Аватара пользователя
СССР
al1ksandr
Помощник Администратора-Корсар
  • Торрент
Для скачивания торрента необходимо зарегистрироваться или войти на трекер.

Вернуться в Классика зарубежного кино (фильмы до 1980 года / HD Video)



Uptime по данным Ping-Admin.Ru - сервиса мониторинга доступности сайтов
Рейтинг@Mail.ru