logo
Международный русскоязычный
торрент-трекер
Menu
Doublon
Поделиться с друзьями: 
Голосуй за Корсар и получи 500 дублонов
Рейтинг торрент трекеров - UpTracker.ru

Что? Где? Когда? / Зимняя серия игр. Игра 3 (11.12.2016, развлекательные телепередачи, HDTVRip 1080p)

Сообщение mister Pitkin » 12 дек 2016, 00:53

Что? Где? Когда? Зимняя cерия, 2016. Игра 3

Дата/Год выпуска: 11.12.2016
Страна: Россия
Жанр: Телеигра
Продолжительность: 01:04:43
Перевод: Не требуется
Русские субтитры: нет

Телеканал: Первый HD
Описание: Что? Где? Когда? Зимняя Серия 2016. Игра 3

Доп. информация:
Команда Бориса Белозёрова:
1. Ольга Быкова
2. Дарья Любинская
3. Ким Галачян
4. Антон Иоков
5. Никита Старун
6. Борис Белозёров

качество: HDTV 1080i
формат: TS
Видео: H.264, 1920x1080 (16:9), 25 fps, 5,3 Mbps
Аудио: MP2, 192 Kbps, 48KHz 2ch stereo
Общее
Идентификатор : 1 (0x1)
Полное имя : C:\_UP_\2016.12.11 Что Где Когда. Зимняя серия. Игра 3.ts
Формат : MPEG-TS
Размер файла : 2,66 Гбайт
Продолжительность : 1 ч. 4 м.
Режим общего битрейта : Переменный
Общий поток : 5884 Кбит/сек

Видео
Идентификатор : 67 (0x43)
Идентификатор меню : 1 (0x1)
Формат : AVC
Формат/Информация : Advanced Video Codec
Профиль формата : Main@L4
Параметр CABAC формата : Да
Параметр ReFrames формата : 4 кадра
Параметр GOP формата : M=1, N=32
Идентификатор кодека : 27
Продолжительность : 1 ч. 4 м.
Битрейт : 5399 Кбит/сек
Ширина : 1920 пикселей
Высота : 1080 пикселей
Соотношение сторон : 16:9
Частота кадров : 25,000 кадров/сек
Цветовое пространство : YUV
Субдискретизация насыщенности : 4:2:0
Битовая глубина : 8 бит
Тип развёртки : Чересстрочная
Метод сохранения типа развёртки : Раздельные поля
Порядок развёртки : Верхнее поле первое
Бит/(Пиксели*Кадры) : 0.104
Размер потока : 2,44 Гбайт (92%)
Цветовой диапазон : Limited
Основные цвета : BT.709
Характеристики трансфера : BT.709
Коэффициенты матрицы : BT.709

Аудио
Идентификатор : 68 (0x44)
Идентификатор меню : 1 (0x1)
Формат : MPEG Audio
Версия формата : Version 1
Профиль формата : Layer 2
Идентификатор кодека : 3
Продолжительность : 1 ч. 4 м.
Вид битрейта : Постоянный
Битрейт : 192 Кбит/сек
Каналы : 2 канала
Частота : 48,0 КГц
Метод сжатия : С потерями
Размер потока : 88,9 Мбайт (3%)
Язык : Russian



СТАЖ

МЕДАЛИ
Награды:8

За отличные раздачи и качество (4)

Аватара пользователя
mister Pitkin
Опытный Релизёр-Корсар
  • Торрент
Для скачивания торрента необходимо зарегистрироваться или войти на трекер.

Сообщение filbi1976 » 12 дек 2016, 01:27

mister Pitkin, спасибо за оперативность! :hi:
Посмотреть товар в профиле пользователя

Нажмите на изображение, чтобы увидеть в полный размер  
1 шт.
Нажмите на изображение, чтобы увидеть в полный размер  
1 шт.
Нажмите на изображение, чтобы увидеть в полный размер  
1 шт.
Нажмите на изображение, чтобы увидеть в полный размер  
1 шт.
Нажмите на изображение, чтобы увидеть в полный размер  
1 шт.
Нажмите на изображение, чтобы увидеть в полный размер  
1 шт.
Нажмите на изображение, чтобы увидеть в полный размер  
1 шт.
Нажмите на изображение, чтобы увидеть в полный размер  
1 шт.
Нажмите на изображение, чтобы увидеть в полный размер  
1 шт.
Нажмите на изображение, чтобы увидеть в полный размер  
1 шт.
Нажмите на изображение, чтобы увидеть в полный размер  
1 шт.
Нажмите на изображение, чтобы увидеть в полный размер  
1 шт.
Нажмите на изображение, чтобы увидеть в полный размер  
1 шт.
Нажмите на изображение, чтобы увидеть в полный размер  
1 шт.
Нажмите на изображение, чтобы увидеть в полный размер  
1 шт.
КУБКИ

СТАЖ

МЕДАЛИ
Награды:109

За помощь проекту (2) За отличные раздачи и качество (70) За отличные комментарии (5) Почётный форумчанин (4) Верный Сид (25) За участие в конкурсах/играх (1)

Аватара пользователя
Тортуга
filbi1976
Администратор-Корсар


Вернуться в Интеллектуальные игры и викторины



Uptime по данным Ping-Admin.Ru - сервиса мониторинга доступности сайтов
Рейтинг@Mail.ru Голосуйте за наш сайт в каталоге Rubo.Ru