logo
Международный русскоязычный
торрент-трекер
Menu

Магазин-KorsaRDoublon
Поделиться с друзьями: 
Голосуй за Корсар и получай дублоны
Рейтинг торрент трекеров - UpTracker.ru

Что? Где? Когда? / Весенняя серия игр 2016 / Игра 1-5 (2016, развлекательные телепередачи, HDTVRip 720p)

Сообщение mister Pitkin » 09 дек 2016, 22:09

Что? Где? Когда?

Весенняя игр 2016
Игра 1-5
Год выпуска: 2016
Страна: Россия
Жанр: Телеигра
Телеканал: Первый
Язык: русский
Продолжительность: 00:56:11, 00:55:27, 01:02:16, 00:54:34, 01:12:08
Описание: Интеллектуальная викторина, наиболее распространённая в русскоязычной среде. Была создана в 1975 г. телеведущим Владимиром Ворошиловым. Игра очень быстро стала настолько популярной, что кроме оригинальной телевизионной версии появилась спортивная версия игры. Сущность игры заключается в противостоянии команды Знатоков (игровой команды из шести человек) команде Телезрителей. Знатоки должны за одну минуту при помощи мозгового штурма найти ответ на вопрос, присланный телезрителем. Как правило, игрокам задаются вопросы, ответить на которые можно с помощью общих знаний и логики. За каждый правильный ответ команда Знатоков получает одно очко, в случае неверного ответа очко начисляется команде Телезрителей. Игра ведётся до шести очков.
Качество: HDTVRip 720p (за спасибо Doc66)
Формат: MKV
Видео: H.264, 1280x720, 3540 - 3826 kbps, 25 fps
Аудио: Russian, AC3, 2ch, 48 kHz, 192 kbps
Команда Ровшана Аскерова
Команда Елены Потаниной
Команда Андрея Козлова
Команда Виктора Сиднева
Команда Балаша Касумова

x264 [info]: frame I:497 Avg QP:18.20 size: 79242
x264 [info]: frame P:19261 Avg QP:19.42 size: 38646
x264 [info]: frame B:64518 Avg QP:21.66 size: 11781
x264 [info]: consecutive B-frames: 1.9% 2.7% 7.1% 34.9% 11.2% 36.3% 3.3% 2.1% 0.4%
x264 [info]: mb I I16..4: 5.5% 73.2% 21.3%
x264 [info]: mb P I16..4: 2.5% 15.9% 2.4% P16..4: 33.2% 35.5% 8.1% 0.9% 0.1% skip: 1.4%
x264 [info]: mb B I16..4: 0.4% 1.4% 0.2% B16..8: 36.7% 22.2% 2.8% direct: 7.6% skip:28.7% L0:37.9% L1:49.9% BI:12.1%
x264 [info]: 8x8 transform intra:74.9% inter:65.7%
x264 [info]: coded y,uvDC,uvAC intra: 72.0% 91.6% 66.4% inter: 16.9% 33.2% 12.3%
x264 [info]: i16 v,h,dc,p: 24% 13% 5% 58%
x264 [info]: i8 v,h,dc,ddl,ddr,vr,hd,vl,hu: 10% 8% 7% 9% 12% 13% 13% 13% 15%
x264 [info]: i4 v,h,dc,ddl,ddr,vr,hd,vl,hu: 13% 12% 6% 8% 13% 13% 12% 10% 13%
x264 [info]: i8c dc,h,v,p: 37% 20% 20% 22%
x264 [info]: Weighted P-Frames: Y:4.1% UV:2.5%
x264 [info]: ref P L0: 54.2% 10.1% 19.6% 5.9% 5.6% 4.1% 0.4% 0.0%
x264 [info]: ref B L0: 89.7% 7.1% 1.9% 0.8% 0.4%
x264 [info]: ref B L1: 97.3% 2.7%
x264 [info]: kb/s:3663.68
x264 [info]: encoded 84276 frames, 1.29 fps, 3663.68 kb/s, duration 18:12:53.65
Format : Matroska
Format version : Version 4 / Version 2
File size : 1.51 GiB
Duration : 56mn 11s
Overall bit rate : 3 857 Kbps
Encoded date : UTC 2016-03-30 15:39:16
Writing application : mkvmerge v8.3.0 ('Over the Horizon') 64bit
Writing library : libebml v1.3.1 + libmatroska v1.4.2
DURATION : 00:56:11.008000000
NUMBER_OF_FRAMES : 105344
NUMBER_OF_BYTES : 80904192
_STATISTICS_WRITING_APP : mkvmerge v8.3.0 ('Over the Horizon') 64bit
_STATISTICS_WRITING_DATE_UTC : 2016-03-30 15:39:16
_STATISTICS_TAGS : BPS DURATION NUMBER_OF_FRAMES NUMBER_OF_BYTES

Video
ID : 1
Format : AVC
Format/Info : Advanced Video Codec
Format profile : High@L4.1
Format settings, CABAC : Yes
Format settings, ReFrames : 6 frames
Codec ID : V_MPEG4/ISO/AVC
Duration : 56mn 11s
Bit rate : 3 589 Kbps
Width : 1 280 pixels
Height : 720 pixels
Display aspect ratio : 16:9
Frame rate mode : Constant
Frame rate : 25.000 fps
Color space : YUV
Chroma subsampling : 4:2:0
Bit depth : 8 bits
Scan type : Progressive
Bits/(Pixel*Frame) : 0.156
Stream size : 1.41 GiB (93%)
Writing library : x264 core 148 r2665kMod a01e339
Encoding settings : cabac=1 / ref=6 / deblock=1:-1:0 / analyse=0x3:0x133 / me=umh / subme=11 / psy=1 / fade_compensate=0.00 / psy_rd=1.00:0.03 / mixed_ref=1 / me_range=32 / chroma_me=1 / trellis=2 / 8x8dct=1 / cqm=0 / deadzone=21,11 / fast_pskip=0 / chroma_qp_offset=-3 / threads=6 / lookahead_threads=1 / sliced_threads=0 / nr=0 / decimate=1 / interlaced=0 / bluray_compat=0 / constrained_intra=0 / fgo=0 / bframes=8 / b_pyramid=2 / b_adapt=2 / b_bias=0 / direct=1 / weightb=1 / open_gop=0 / weightp=2 / keyint=250 / keyint_min=25 / scenecut=40 / intra_refresh=0 / rc_lookahead=40 / rc=crf / mbtree=0 / crf=20.0000 / qcomp=0.65 / qpmin=0 / qpmax=69 / qpstep=4 / vbv_maxrate=62500 / vbv_bufsize=78125 / crf_max=0.0 / nal_hrd=none / filler=0 / ip_ratio=1.40 / pb_ratio=1.30 / aq=3:1.00
Language : Russian
Default : Yes
Forced : No
DURATION : 00:56:11.040000000
NUMBER_OF_FRAMES : 84276
NUMBER_OF_BYTES : 1543802623
_STATISTICS_WRITING_APP : mkvmerge v8.3.0 ('Over the Horizon') 64bit
_STATISTICS_WRITING_DATE_UTC : 2016-03-30 15:39:16
_STATISTICS_TAGS : BPS DURATION NUMBER_OF_FRAMES NUMBER_OF_BYTES
Matrix coefficients : BT.709

Audio
ID : 2
Format : AC-3
Format/Info : Audio Coding 3
Mode extension : CM (complete main)
Format settings, Endianness : Big
Codec ID : A_AC3
Duration : 56mn 11s
Bit rate mode : Constant
Bit rate : 192 Kbps
Channel(s) : 2 channels
Channel positions : Front: L R
Sampling rate : 48.0 KHz
Bit depth : 16 bits
Compression mode : Lossy
Stream size : 77.2 MiB (5%)
Language : Russian
Default : Yes
Forced : No
Исходник

Рип

Релиз от группы
Аватара пользователя
mister Pitkin
Опытный Релизёр-Корсар
 
 

Награды: 1
  • Торрент
Для скачивания торрента необходимо зарегистрироваться или войти на трекер.

Сообщение bagrad » 11 дек 2016, 02:28

Спасибо большое mister Pitkin! :hi:
Dum spíro, spéro!
Аватара пользователя
bagrad
Заслуженный Корсар-Вип
 
 

Награды: 13
За помощь проекту (1) Лучший по количеству кубков (7) За отличные комментарии (1) Верный Сид (4)


Вернуться в Документальные фильмы и телепередачи



Uptime по данным Ping-Admin.Ru - сервиса мониторинга доступности сайтов