logo
Международный русскоязычный
торрент-трекер

Магазин-KorsaRDoublon

Поделиться с друзьями: 

Что? Где? Когда? /Летняя серия игр 2016 / Игра 1-5 (2016, развлекательные телепередачи, HDTVRip 720p)

Сообщение mister Pitkin » 09 дек 2016, 22:43

Что? Где? Когда?

Летняя серия игр 2016
Игра 1-5
Год выпуска: 2016
Страна: Россия
Жанр: Телеигра
Телеканал: Первый
Язык: русский
Продолжительность: 00:49:37, 00:54:52, 01:07:58, 00:52:15, 01:06:40
Описание: Интеллектуальная викторина, наиболее распространённая в русскоязычной среде. Была создана в 1975 г. телеведущим Владимиром Ворошиловым. Игра очень быстро стала настолько популярной, что кроме оригинальной телевизионной версии появилась спортивная версия игры. Сущность игры заключается в противостоянии команды Знатоков (игровой команды из шести человек) команде Телезрителей. Знатоки должны за одну минуту при помощи мозгового штурма найти ответ на вопрос, присланный телезрителем. Как правило, игрокам задаются вопросы, ответить на которые можно с помощью общих знаний и логики. За каждый правильный ответ команда Знатоков получает одно очко, в случае неверного ответа очко начисляется команде Телезрителей. Игра ведётся до шести очков.
Качество: HDTVRip 720p (за спасибо Doc66 и Kyon99)
Формат: MKV
Видео: H.264, 1280x720, 3584-3946 kbps, 25 fps
Аудио: Russian, AC3, 2ch, 48 kHz, 192 kbps
Команда Игоря Алексеева
Команда Леонида Слуцкого
Команда Бориса Белозёрова
Команда Константина Рудера
Команда Алёны Повышевой

x264 [info]: frame I:447 Avg QP:18.01 size: 81539
x264 [info]: frame P:17602 Avg QP:19.38 size: 38280
x264 [info]: frame B:56374 Avg QP:21.83 size: 11060
x264 [info]: consecutive B-frames: 1.8% 2.7% 6.1% 46.6% 12.3% 27.7% 1.8% 0.7% 0.3%
x264 [info]: mb I I16..4: 5.3% 72.9% 21.8%
x264 [info]: mb P I16..4: 2.6% 13.9% 2.3% P16..4: 33.7% 36.4% 8.6% 1.0% 0.1% skip: 1.4%
x264 [info]: mb B I16..4: 0.4% 1.2% 0.2% B16..8: 35.6% 21.7% 2.8% direct: 7.4% skip:30.7% L0:38.2% L1:48.7% BI:13.2%
x264 [info]: 8x8 transform intra:72.4% inter:63.5%
x264 [info]: coded y,uvDC,uvAC intra: 68.0% 89.9% 64.8% inter: 16.4% 31.3% 12.4%
x264 [info]: i16 v,h,dc,p: 24% 15% 6% 55%
x264 [info]: i8 v,h,dc,ddl,ddr,vr,hd,vl,hu: 9% 9% 8% 9% 12% 13% 13% 13% 15%
x264 [info]: i4 v,h,dc,ddl,ddr,vr,hd,vl,hu: 13% 13% 7% 8% 13% 12% 12% 10% 13%
x264 [info]: i8c dc,h,v,p: 38% 21% 20% 21%
x264 [info]: Weighted P-Frames: Y:3.6% UV:2.6%
x264 [info]: ref P L0: 55.4% 10.5% 19.1% 5.6% 5.4% 3.9% 0.1% 0.0%
x264 [info]: ref B L0: 91.1% 6.2% 1.7% 0.7% 0.3%
x264 [info]: ref B L1: 98.2% 1.8%
x264 [info]: kb/s:3584.20
x264 [info]: encoded 74423 frames, 1.10 fps, 3584.20 kb/s, duration 18:43:35.86
Format : Matroska
Format version : Version 4 / Version 2
File size : 1.31 GiB
Duration : 49mn 36s
Overall bit rate : 3 778 Kbps
Encoded date : UTC 2016-05-26 15:32:09
Writing application : mkvmerge v8.3.0 ('Over the Horizon') 64bit
Writing library : libebml v1.3.1 + libmatroska v1.4.2
DURATION : 00:49:36.864000000
NUMBER_OF_FRAMES : 93027
NUMBER_OF_BYTES : 71444736
_STATISTICS_WRITING_APP : mkvmerge v8.3.0 ('Over the Horizon') 64bit
_STATISTICS_WRITING_DATE_UTC : 2016-05-26 15:32:09
_STATISTICS_TAGS : BPS DURATION NUMBER_OF_FRAMES NUMBER_OF_BYTES

Video
ID : 1
Format : AVC
Format/Info : Advanced Video Codec
Format profile : High@L4.1
Format settings, CABAC : Yes
Format settings, ReFrames : 6 frames
Codec ID : V_MPEG4/ISO/AVC
Duration : 49mn 36s
Bit rate : 3 511 Kbps
Width : 1 280 pixels
Height : 720 pixels
Display aspect ratio : 16:9
Frame rate mode : Constant
Frame rate : 25.000 fps
Color space : YUV
Chroma subsampling : 4:2:0
Bit depth : 8 bits
Scan type : Progressive
Bits/(Pixel*Frame) : 0.152
Stream size : 1.22 GiB (93%)
Writing library : x264 core 148 r2692kMod 64f4e24
Encoding settings : cabac=1 / ref=6 / deblock=1:-1:0 / analyse=0x3:0x133 / me=umh / subme=11 / psy=1 / fade_compensate=0.00 / psy_rd=1.00:0.03 / mixed_ref=1 / me_range=32 / chroma_me=1 / trellis=2 / 8x8dct=1 / cqm=0 / deadzone=21,11 / fast_pskip=0 / chroma_qp_offset=-3 / threads=6 / lookahead_threads=1 / sliced_threads=0 / nr=0 / decimate=1 / interlaced=0 / bluray_compat=0 / constrained_intra=0 / fgo=0 / bframes=8 / b_pyramid=2 / b_adapt=2 / b_bias=0 / direct=1 / weightb=1 / open_gop=0 / weightp=2 / keyint=250 / keyint_min=25 / scenecut=40 / intra_refresh=0 / rc_lookahead=40 / rc=crf / mbtree=0 / crf=20.0000 / qcomp=0.65 / qpmin=0 / qpmax=69 / qpstep=4 / vbv_maxrate=62500 / vbv_bufsize=78125 / crf_max=0.0 / nal_hrd=none / filler=0 / ip_ratio=1.40 / pb_ratio=1.30 / aq=3:1.00
Language : Russian
Default : Yes
Forced : No
DURATION : 00:49:36.920000000
NUMBER_OF_FRAMES : 74423
NUMBER_OF_BYTES : 1333734316
_STATISTICS_WRITING_APP : mkvmerge v8.3.0 ('Over the Horizon') 64bit
_STATISTICS_WRITING_DATE_UTC : 2016-05-26 15:32:09
_STATISTICS_TAGS : BPS DURATION NUMBER_OF_FRAMES NUMBER_OF_BYTES
Matrix coefficients : BT.709

Audio
ID : 2
Format : AC-3
Format/Info : Audio Coding 3
Mode extension : CM (complete main)
Format settings, Endianness : Big
Codec ID : A_AC3
Duration : 49mn 36s
Bit rate mode : Constant
Bit rate : 192 Kbps
Channel(s) : 2 channels
Channel positions : Front: L R
Sampling rate : 48.0 KHz
Bit depth : 16 bits
Compression mode : Lossy
Stream size : 68.1 MiB (5%)
Language : Russian
Default : Yes
Forced : No
Исходник

Рип

Релиз от группы
mister Pitkin
Опытный Релизёр-Корсар
 
Месяцев на трекере: 2Месяцев на трекере: 2
 
Зарегистрирован: 08 дек 2016, 19:34
В кошельке: 100.00
Банк: 0.00

Награды: 1
За отличные раздачи (1)
  • Торрент
Автор: mister Pitkin Хэш: ---
Добавлен: 09 дек 2016, 22:43 Приватный: Нет (DHT включён)
Статус: Проверен
Размер: 8.04 ГБ (8 635 572 599 байт)
Изменил: Korsar (09 дек 2016, 22:46)
Скачали: 0 (Раздающих: 100%)
Причина:
---
Здоровье: 100%
Сидеров: 8 Личеров: 2
Скорость раздачи: 0 байт/сек Скорость скачивания: 0 байт/сек
Последний сидер: 1 день 20 часов 23 минуты 58 секунд назад Последний личер: 1 день 20 часов 23 минуты 58 секунд назад
Для скачивания торрента необходимо зарегистрироваться или войти на трекер.

Сообщение bagrad » 11 дек 2016, 02:26

Спасибо большое mister Pitkin! :hi:
Dum spíro, spéro!
Аватара пользователя
bagrad
Корсар-Вип
 
Месяцев на трекере: 6Месяцев на трекере: 6Месяцев на трекере: 6Месяцев на трекере: 6Месяцев на трекере: 6Месяцев на трекере: 6
 
Зарегистрирован: 06 авг 2016, 12:35
В кошельке: 1,321.00
Банк: 0.00
Откуда: СССР
Флаги:
СССР-2

Награды: 2
За помощь проекту (1) За развитие форума (1)


Вернуться в Документальные фильмы и телепередачи

Выключите ADBLOCK!
проверить сайт
cron