logo
Международный русскоязычный
торрент-трекер
Menu

Doublon
Поделиться с друзьями: 
Голосуй за Корсар и получи 400 дублонов
Рейтинг торрент трекеров - UpTracker.ru

Чиполлино. Заколдованный мальчик (1955, 1961, Мультфильм, рисованный, детский, экранизация, DVDRip-AVC)

Сообщение Gogen » 27 май 2017, 00:10

Информация о фильме
Название: Чиполлино. Заколдованный мальчик
Год выхода: 1955, 1961
Жанр: Мультфильм, рисованный, детский, экранизация
Режиссер: Борис Дёжкин, Владимир Полковников, Александра Снежко-Блоцкая
В ролях: роли озвучивали "Чиполлино": Вера Орлова (I), Михаил Названов, Виктор Кольцов, Анастасия Георгиевская, Маргарита Куприянова, Григорий Шпигель, Эраст Гарин, Ирина Потоцкая, Наталья Львова, Георгий Вицин, "Заколдованный мальчик": Анатолий Кубацкий (Гном) , Эраст Гарин (Мартин) , Георгий Вицин (Розенбом) , Валентина Сперантова (Нильс) , Алексей Консовский, Т. Струкова монтажер Нина Майорова…

О фильме:
Вашему вниманию предлагается сборник мультфильмов киностудии "Союзмультфильм". Знакомая каждому с детства сказка "Чиполлино" Джанни Родари рассказывает о мальчике-луковке и его друзьях из "фруктово-овощного" сказочного мира, которые борются за справедливость и мечтают о добре. Не менее популярная и любимая детьми сказочная повесть шведской писательницы Сельмы Лагерлеф "Чудесное путешествие на гусях" (название мультипликационной версии - "Заколдованный мальчик"), рассказывающая об озорнике Нильсе, который обидел волшебного Гнома, за что был наказан: превращен в карлика и унесен гусями в Лапландию. Много благородных поступков совершил мальчик, прежде чем мудрый Гном снял с него свои чары.


Страна: СССР
Студия: Союзмультфильм, Киновидеообъединение "Крупный План", Полная реставрация изображения и звука.
Продолжительность: 00:37:42 + 00:42:51
Перевод: не требуется

Файл
Кодек: h.264
Качество: DVDRip
Видео: MPEG-4 AVC, 720x544, 5000 Кбит/с, 25.000 кадр/с
Звук:
Аудио #1: Русский ( AC3, 2ch, 448 Кбит/с, 48.0 KHz)
Аудио #2: Русский ( AC3, 1ch, 224 Кбит/с, 48.0 KHz)
Субтитры: нет
General
Unique ID : 190497804198685664250175796398332509143 (0x8F508AE4346388FA9F58397DB70EFBD7)
Complete name : Chipollino.1961.DVDRip-AVC.mkv
Format : Matroska
Format version : Version 4 / Version 2
File size : 1.49 GiB
Duration : 37 min 42 s
Overall bit rate : 5 676 kb/s
Encoded date : UTC 2017-05-26 07:08:50
Writing application : mkvmerge v7.8.0 ('River Man') 64bit built on Mar 27 2015 16:31:37
Writing library : libebml v1.3.1 + libmatroska v1.4.2

Video
ID : 1
Format : AVC
Format/Info : Advanced Video Codec
Format profile : High@L4.1
Format settings, CABAC : Yes
Format settings, ReFrames : 12 frames
Codec ID : V_MPEG4/ISO/AVC
Duration : 37 min 42 s
Bit rate : 5 000 kb/s
Width : 720 pixels
Height : 544 pixels
Display aspect ratio : 4:3
Frame rate mode : Constant
Frame rate : 25.000 FPS
Color space : YUV
Chroma subsampling : 4:2:0
Bit depth : 8 bits
Scan type : Progressive
Bits/(Pixel*Frame) : 0.511
Stream size : 1.32 GiB (88%)
Title : Video-H264
Writing library : x264 core 146 r2538 121396c
Encoding settings : cabac=1 / ref=12 / deblock=1:-3:-3 / analyse=0x3:0x133 / me=umh / subme=11 / psy=1 / psy_rd=1.00:0.00 / mixed_ref=1 / me_range=32 / chroma_me=1 / trellis=2 / 8x8dct=1 / cqm=0 / deadzone=21,11 / fast_pskip=1 / chroma_qp_offset=-2 / threads=6 / lookahead_threads=1 / sliced_threads=0 / nr=0 / decimate=1 / interlaced=0 / bluray_compat=0 / constrained_intra=0 / bframes=10 / b_pyramid=2 / b_adapt=2 / b_bias=0 / direct=3 / weightb=1 / open_gop=0 / weightp=2 / keyint=250 / keyint_min=23 / scenecut=40 / intra_refresh=0 / rc_lookahead=60 / rc=2pass / mbtree=1 / bitrate=5000 / ratetol=1.0 / qcomp=0.60 / qpmin=0 / qpmax=69 / qpstep=4 / cplxblur=20.0 / qblur=0.5 / ip_ratio=1.40 / aq=1:1.00
Language : Russian
Default : Yes
Forced : No

Audio #1
ID : 2
Format : AC-3
Format/Info : Audio Coding 3
Mode extension : CM (complete main)
Format settings, Endianness : Big
Codec ID : A_AC3
Duration : 37 min 41 s
Bit rate mode : Constant
Bit rate : 448 kb/s
Channel(s) : 6 channels
Channel positions : Front: L C R, Side: L R, LFE
Sampling rate : 48.0 kHz
Frame rate : 31.250 FPS (1536 spf)
Bit depth : 16 bits
Compression mode : Lossy
Stream size : 121 MiB (8%)
Language : Russian
Default : Yes
Forced : No

Audio #2
ID : 3
Format : AC-3
Format/Info : Audio Coding 3
Mode extension : CM (complete main)
Format settings, Endianness : Big
Codec ID : A_AC3
Duration : 37 min 41 s
Bit rate mode : Constant
Bit rate : 224 kb/s
Channel(s) : 1 channel
Channel positions : Front: C
Sampling rate : 48.0 kHz
Frame rate : 31.250 FPS (1536 spf)
Bit depth : 16 bits
Compression mode : Lossy
Stream size : 60.4 MiB (4%)
Language : Russian
Default : No
Forced : No

General
Unique ID : 204824116002309992439452165525860767887 (0x9A17B098F8872D768BFB095B4A17D88F)
Complete name : Zakoldovannyj.malchik.1955.DVDRip-AVC.mkv
Format : Matroska
Format version : Version 4 / Version 2
File size : 1.70 GiB
Duration : 42 min 51 s
Overall bit rate : 5 674 kb/s
Encoded date : UTC 2017-05-26 06:59:38
Writing application : mkvmerge v7.8.0 ('River Man') 64bit built on Mar 27 2015 16:31:37
Writing library : libebml v1.3.1 + libmatroska v1.4.2

Video
ID : 1
Format : AVC
Format/Info : Advanced Video Codec
Format profile : High@L4.1
Format settings, CABAC : Yes
Format settings, ReFrames : 12 frames
Codec ID : V_MPEG4/ISO/AVC
Duration : 42 min 51 s
Bit rate : 5 000 kb/s
Width : 720 pixels
Height : 544 pixels
Display aspect ratio : 4:3
Frame rate mode : Constant
Frame rate : 25.000 FPS
Color space : YUV
Chroma subsampling : 4:2:0
Bit depth : 8 bits
Scan type : Progressive
Bits/(Pixel*Frame) : 0.511
Stream size : 1.50 GiB (88%)
Title : Video-H264
Writing library : x264 core 146 r2538 121396c
Encoding settings : cabac=1 / ref=12 / deblock=1:-3:-3 / analyse=0x3:0x133 / me=umh / subme=11 / psy=1 / psy_rd=1.00:0.00 / mixed_ref=1 / me_range=32 / chroma_me=1 / trellis=2 / 8x8dct=1 / cqm=0 / deadzone=21,11 / fast_pskip=1 / chroma_qp_offset=-2 / threads=6 / lookahead_threads=1 / sliced_threads=0 / nr=0 / decimate=1 / interlaced=0 / bluray_compat=0 / constrained_intra=0 / bframes=10 / b_pyramid=2 / b_adapt=2 / b_bias=0 / direct=3 / weightb=1 / open_gop=0 / weightp=2 / keyint=250 / keyint_min=23 / scenecut=40 / intra_refresh=0 / rc_lookahead=60 / rc=2pass / mbtree=1 / bitrate=5000 / ratetol=1.0 / qcomp=0.60 / qpmin=0 / qpmax=69 / qpstep=4 / cplxblur=20.0 / qblur=0.5 / ip_ratio=1.40 / aq=1:1.00
Language : Russian
Default : Yes
Forced : No

Audio #1
ID : 2
Format : AC-3
Format/Info : Audio Coding 3
Mode extension : CM (complete main)
Format settings, Endianness : Big
Codec ID : A_AC3
Duration : 42 min 51 s
Bit rate mode : Constant
Bit rate : 448 kb/s
Channel(s) : 6 channels
Channel positions : Front: L C R, Side: L R, LFE
Sampling rate : 48.0 kHz
Frame rate : 31.250 FPS (1536 spf)
Bit depth : 16 bits
Compression mode : Lossy
Stream size : 137 MiB (8%)
Language : Russian
Default : Yes
Forced : No

Audio #2
ID : 3
Format : AC-3
Format/Info : Audio Coding 3
Mode extension : CM (complete main)
Format settings, Endianness : Big
Codec ID : A_AC3
Duration : 42 min 51 s
Bit rate mode : Constant
Bit rate : 224 kb/s
Channel(s) : 1 channel
Channel positions : Front: C
Sampling rate : 48.0 kHz
Frame rate : 31.250 FPS (1536 spf)
Bit depth : 16 bits
Compression mode : Lossy
Stream size : 68.7 MiB (4%)
Language : Russian
Default : No
Forced : No

КУБКИ

СТАЖ

МЕДАЛИ
Награды:42

Лучший по количеству кубков (14) За отличные раздачи и качество (21) За подробное оформление раздач (1) Верный Сид (2)

Аватара пользователя
Russia
Gogen
Заслуженный Релизёр-Корсар
  • Торрент
Для скачивания торрента необходимо зарегистрироваться или войти на трекер.

Сообщение Kwinto » 27 май 2017, 01:37

Спасибо огромное Gogen!!! Отличные мультяшки!
А Чиполлино, теперь ассоциируется с политикой: за дождь без молнии плоти, с молнией другая цена и прочее! Мультик на все времена
КУБКИ

СТАЖ

МЕДАЛИ
Награды:17

За помощь проекту (4) За отличные раздачи и качество (8) Верный Сид (3)

Аватара пользователя
Switzerland
Kwinto
Главный Модератор-Корсар


Вернуться в Сборники отечественных мультфильмов



Uptime по данным Ping-Admin.Ru - сервиса мониторинга доступности сайтов
Рейтинг@Mail.ru Голосуйте за наш сайт в каталоге Rubo.Ru