logo
Международный русскоязычный
торрент-трекер
Menu

Doublon
Поделиться с друзьями: 
Голосуй за Корсар и получи 400 дублонов
Рейтинг торрент трекеров - UpTracker.ru

Чертова служба в госпитале МЭШ / M.A.S.H / Сезон: 11 / Серии: 01-16 из 16 (1982, комедия, драма, военный, WEB-DL 1080p)

Сообщение kisa1980 » 04 окт 2018, 17:52

Название: Чертова служба в госпитале МЭШ
Оригинальное название: M.A.S.H
Год выпуска: 1982
Страна: США
Жанр: Комедия, драма, военный
Продолжительность: 16 ~ 00:25:00
Перевод: Профессиональный двухголосый | РЕН ТВ
Режиссер: Вильяма Селфа, Алан Алда, Хай Авербек, Джеки Купер, Джин Рэйнольдс, Тэри Бейкер, Дон Уэйс, Норман Токар
В ролях: Алан Алда, Вэйн Роджерс, Ларри Линвилл, Лоретта Суит, МакЛин Стивенсон, Гэри Бергофф, Джейми Фарр, Вильям Кристофер, Дэвид Огден Стайерз, Майк Фаррелл, Гарри Морган

Описание: Телесериал "M*A*S*H" рассказывает о жизни группы врачей-хирургов, работающих в передвижном военном госпитале во время корейской войны в начале 50-х. Персонажи Передвижного Армейского Хирургического Госпиталя (МЭШ) стараются отвлечься от тяжелой повседневной работы. Это выливается в непредсказуемое и неадекватное поведение, что помогает им сохранять здравость рассудка в нездоровом окружении. Герои сериала - люди серьезные, которые обращаются к юмору с целью разрядки после гнетущей атмосферы операционных комнат, где они оказывают первую помощь пострадавшим на поле боя. Их юмор - своеобразная защита от страданий. Оперируя под звуки орудий и рев самолетов на 38 параллели, персонажи сериала "МЭШ" являются героями и восставшими из ада, бюрократами и бездельниками, демонами и ангелами. Все им сходит с рук, благодаря их изобретательности и мастерству хирургов.



Качество: WEB-DL 1080p
Контейнер: MKV
Видео: AVC, 1920x1080 (16:9), 23.976 fps, 5.9 Mbps
Аудио 1: AC3, 48 KHz, 2 ch, 192 kbps - РЕН ТВ
Аудио 2: AAC, 48 KHz, 2 ch, 64 kbps - Original
Субтитры: Английские

ЦитатаКто-то писал:
Картинка с HULU от комрада AJP69

Русский звук взят из раздачи GreenLeaf2....
Английский звук VBR (Переменный)
Общее
Уникальный идентификатор : 116834769884694273871065647137475433727 (0x57E58EE5520970A59C90DBFC099A94FF)
Полное имя : G:MASH.S11.1080p.WEB-DL.x264.(Ren-TV)-ParovozNMASH.S11E01.1080p.WEB-DL.x264.Rus.Eng.mkv
Формат : Matroska
Версия формата : Version 4 / Version 2
Размер файла : 1,08 Гбайт
Продолжительность : 24 м. 56 с.
Общий поток : 6179 Кбит/сек
Название фильма : MASH.S11E01.1080p.WEB-DL.x264-AJP69-ParovozN
Дата кодирования : UTC 2018-10-03 05:09:13
Программа кодирования : mkvmerge v24.0.0 ('Beyond The Pale') 64-bit
Библиотека кодирования : libebml v1.3.6 + libmatroska v1.4.9

Видео
Идентификатор : 1
Формат : AVC
Формат/Информация : Advanced Video Codec
Профиль формата : High@L4
Настройки формата : CABAC / 4 Ref Frames
Параметр CABAC формата : Да
Параметр RefFrames формата : 4 кадра
Идентификатор кодека : V_MPEG4/ISO/AVC
Продолжительность : 24 м. 56 с.
Битрейт : 5921 Кбит/сек
Ширина : 1920 пикселей
Высота : 1080 пикселей
Соотношение сторон : 16:9
Режим частоты кадров : Постоянный
Частота кадров : 23,976 (24000/1001) кадра/сек
Цветовое пространство : YUV
Субдискретизация насыщенности : 4:2:0
Битовая глубина : 8 бит
Тип развёртки : Прогрессивная
Бит/(Пиксели*Кадры) : 0.119
Размер потока : 1,03 Гбайт (96%)
Default : Да
Forced : Нет

Аудио #1
Идентификатор : 2
Формат : AC-3
Формат/Информация : Audio Coding 3
Идентификатор кодека : A_AC3
Продолжительность : 24 м. 55 с.
Вид битрейта : Постоянный
Битрейт : 192 Кбит/сек
Каналы : 2 канала
Расположение каналов : Front: L R
Частота : 48,0 КГц
Частота кадров : 31,250 кадров/сек (1536 SPF)
Битовая глубина : 16 бит
Метод сжатия : С потерями
Размер потока : 34,2 Мбайт (3%)
Заголовок : DVO (Ren-TV)
Язык : Russian
ServiceKind/ : Complete Main
Default : Да
Forced : Нет

Аудио #2
Идентификатор : 3
Формат : AAC
Формат/Информация : Advanced Audio Codec
Профиль формата : HE-AAC / LC
Настройки формата : Explicit
Идентификатор кодека : A_AAC-2
Продолжительность : 24 м. 56 с.
Битрейт : 64,0 Кбит/сек
Каналы : 2 канала
Расположение каналов : Front: L R
Частота : 48,0 КГц / 24,0 КГц
Частота кадров : 23,438 кадра/сек (1024 SPF)
Метод сжатия : С потерями
Размер потока : 11,4 Мбайт (1%)
Язык : English
Default : Нет
Forced : Нет

Текст
Идентификатор : 4
Формат : UTF-8
Идентификатор кодека : S_TEXT/UTF8
Идентификатор кодека/Информация : UTF-8 Plain Text
Продолжительность : 24 м. 18 с.
Битрейт : 100 бит/сек
ElementCount : 549
Размер потока : 17,8 Кбайт (0%)
Язык : English
Default : Нет
Forced : Нет

Меню
00:00:00.000 : en:Chapter 1
00:00:54.250 : en:Chapter 2
00:12:57.166 : en:Chapter 3
00:22:39.166 : en:Chapter 4

Аватара пользователя
kisa1980
Главный помощник Администратора-Корсар
 
 

Награды: 49
За помощь проекту (7) Лучший по количеству кубков (3) За отличные раздачи и качество (15) За подробное оформление раздач (4) За отличные комментарии (4) Почётный форумчанин (3) Верный Сид (9) За участие в конкурсах/играх (2)
  • Торрент
Для скачивания торрента необходимо зарегистрироваться или войти на трекер.

Вернуться в Зарубежные сериалы (HD Video)



Uptime по данным Ping-Admin.Ru - сервиса мониторинга доступности сайтов
Рейтинг@Mail.ru Голосуйте за наш сайт в каталоге Rubo.Ru
cron