logo
Международный русскоязычный
торрент-трекер

Магазин-KorsaRDoublon

Поделиться с друзьями: 
Голосуй и получи дублоны
Рейтинг торрент трекеров - UpTracker.ru

Чернобыль: Зона отчуждения / Сезон: 1 / Серии: 1-8 из 8 (2014, Триллер, WEBRip 720p)

Сообщение Korsar » 28 ноя 2016, 18:31

Чернобыль: Зона отчуждения

Год выпуска: 2014
Производство: Россия, СинеЛаб Продакшн
Жанр: Триллер
Продолжительность: ~ 00:52:00
Режиссёр: Андерс Банке

В ролях: Кристина Казинская, Анвар Халилулаев, Сергей Романович, Евгений Стычкин, Валерия Дмитриева, Константин Давыдов, Илья Щербинин, Николай Иванов, Дарья Лузина, Евгения Каверау

Описание: Пятеро молодых людей прыгают в старую «Волгу» и отправляются на поиски вора, часом ранее укравшего из квартиры родителей главного героя восемь миллионов рублей. Грабитель — обычный московский айтишник, — вместо того чтобы залечь на дно, тут же записывает видеоотчет, в котором сообщает, что финальная точка его путешествия — Чернобыльская АЭС и город Припять.



Качество: WEBRip 720
Формат: MKV
Видео кодек: H.264
Аудио кодек: AC3
Видео: AVC at 4005 Кбит/сек Aspect : 1280 x 720 (1.778) at 25.000 fps
Аудио: AC-3 at 192 Кбит/сек Infos : 2 канала, 48,0 КГц
Общее
Уникальный идентификатор : 248096631752423186672000977151477128323 (0xBAA5AC581AA058F18D9349443C6F9C83)
Полное имя : E:\Downloads\OK\Chernobyl.Zona.otchuzhdeniya.2014.WEB-DL.(720p).MediaClub\Chernobyl.Zona.otchuzhdeniya.(01.seriya).2014.WEB-DL.(720p).MediaClub.mkv
Формат : Matroska
Версия формата : Version 2
Размер файла : 1,60 Гбайт
Продолжительность : 53 м.
Режим общего битрейта : Переменный
Общий поток : 4283 Кбит/сек
Название фильма : Chernobyl.Zona.otchuzhdeniya.(01.seriya.iz.08).2014.WEB-DL.(720p).MediaClub
Дата кодирования : UTC 2014-10-16 09:34:14
Программа кодирования : mkvmerge v5.8.0 ('No Sleep / Pillow') built on Sep 2 2012 15:37:04
Библиотека кодирования : libebml v1.2.3 + libmatroska v1.3.0

Видео
Идентификатор : 1
Формат : AVC
Формат/Информация : Advanced Video Codec
Профиль формата : High@L4
Параметр CABAC формата : Да
Параметр ReFrames формата : 2 кадра
Идентификатор кодека : V_MPEG4/ISO/AVC
Продолжительность : 53 м.
Вид битрейта : Переменный
Битрейт : 4005 Кбит/сек
Максимальный битрейт : 4800 Кбит/сек
Ширина : 1280 пикселей
Высота : 720 пикселей
Соотношение сторон : 16:9
Режим частоты кадров : Постоянный
Частота кадров : 25,000 кадров/сек
Стандарт вещания : PAL
Цветовое пространство : YUV
Субдискретизация насыщенности : 4:2:0
Битовая глубина : 8 бит
Тип развёртки : Прогрессивная
Бит/(Пиксели*Кадры) : 0.174
Размер потока : 1,50 Гбайт (94%)
Default : Да
Forced : Да
Цветовой диапазон : Limited
Основные цвета : BT.709
Характеристики трансфера : BT.709
Коэффициенты матрицы : BT.709

Аудио
Идентификатор : 2
Формат : AC-3
Формат/Информация : Audio Coding 3
Расширение режима : CM (complete main)
Параметр Endianness формата : Big
Идентификатор кодека : A_AC3
Продолжительность : 53 м.
Вид битрейта : Постоянный
Битрейт : 192 Кбит/сек
Каналы : 2 канала
Расположение каналов : Front: L R
Частота : 48,0 КГц
Метод сжатия : С потерями
Размер потока : 73,6 Мбайт (4%)
Default : Да
Forced : Нет
Аватара пользователя
Korsar
Помощник Администратора-Корсар
 
Месяцев на трекере: 7Месяцев на трекере: 7Месяцев на трекере: 7Месяцев на трекере: 7Месяцев на трекере: 7Месяцев на трекере: 7Месяцев на трекере: 7
 
Зарегистрирован: 15 авг 2016, 17:15
В кошельке: 50,730.00
Банк: 0.00
Откуда: CCCР
Флаги:
СССР

Награды: 2
За отличные раздачи (1) Верный Сид (1)
  • Торрент
Автор: Korsar Хэш: ---
Добавлен: 28 ноя 2016, 18:31 Приватный: Нет (DHT включён)
Статус: Проверен
Размер: 10.97 ГБ (11 779 778 139 байт)
Изменил: Korsar (28 ноя 2016, 18:32)
Скачали: 0 (Раздающих: 100%)
Причина:
---
Здоровье: 100%
Сидеров: 34 Личеров: 11
Скорость раздачи: 0 байт/сек Скорость скачивания: 0 байт/сек
Последний сидер: 8 часов 44 секунды назад Последний личер: 8 часов 44 секунды назад
Для скачивания торрента необходимо зарегистрироваться или войти на трекер.

Вернуться в Русские сериалы (HD Video)

На Korsar.tv нет рекламы, для доступа ко всем возможностям отключите блокировщики рекламы!!!
проверить сайт