logo
Международный русскоязычный
торрент-трекер
Menu
Doublon
Поделиться с друзьями: 
Голосуй за Корсар и получи 500 дублонов
Рейтинг торрент трекеров - UpTracker.ru

Черные береты (1994, Боевик, приключения, SATRip-AVC) - KORSAR

Сообщение filbi1976 » 22 дек 2019, 20:05

Черные береты

Жанр: Боевик, приключения
Год выпуска: 1994
Продолжительность: 01:08:29
Режиссёр: Виктор Доценко
В ролях: Василий Шлыков, Надежда Бутырцева, Иван Мартынов, Сергей Гурьев, Владимир Яковлев, Игорь Ильин, Ментай Утепбергенов, Владимир Аникин, Руслан Хабиев, Игорь Муругов, Владимир Новиков, Виктория Азер, Нина Агапова, Владимир Нисков, Андрей Щербович-Вечер, Роман Цветов, Вячеслав Родин, Владимир Шевяков, Лидия Леликова

Описание: По мотивам повести Станислава Гагарина "Парни из морской пехоты". Действие фильма происходит в Севастополе в конце 80-х годов ХХ века. Морские пехотинцы - капитан Ячменев, Федор, Иван и Арвид - демобилизовались из армии. Прежде чем разъехаться по своим родным городам, четверо друзей решили совершить прогулку на теплоходе. Неожиданно гражданское судно захватили террористы, которые собрались переправить большую партию оружия за границу. Отлично подготовленные морские пехотинцы вступили в бой с целой бандой преступников...

Качество: SATRip-AVC
Формат: MKV
Видео: MPEG-4 AVC, 718x574@766x574, 25 fps, 2996 Кбит/с
Аудио: AC3, 1 ch, 192 Кбит/с
Язык: Русский



  • x264 [info]: frame I:679 Avg QP:16.37 size: 78317
  • x264 [info]: frame P:22852 Avg QP:18.11 size: 38231
  • x264 [info]: frame B:79196 Avg QP:20.30 size: 8137
  • x264 [info]: consecutive B-frames: 1.4% 2.2% 10.1% 20.8% 28.7% 34.1% 2.2% 0.4% 0.1%
Общее
Уникальный идентификатор : 226181867265879366493144440564375666301 (0xAA290B08E521B17893775E4BEE18BE7D)
Полное имя : D:\Чёрные береты_1994-SATRip-AVC_KORSAR.mkv
Формат : Matroska
Версия формата : Version 2
Размер файла : 1,56 Гбайт
Продолжительность : 1 ч. 8 м.
Общий поток : 3253 Кбит/сек
Название фильма : Чёрные береты_1994-SATRip-AVC_KORSAR
Дата кодирования : UTC 2019-12-22 17:26:47
Программа кодирования : mkvmerge v5.8.0 ('No Sleep / Pillow') built on Sep 2 2012 15:37:04
Библиотека кодирования : libebml v1.2.3 + libmatroska v1.3.0

Видео
Идентификатор : 1
Формат : AVC
Формат/Информация : Advanced Video Codec
Профиль формата : High@L4.1
Настройки формата : CABAC / 14 Ref Frames
Параметр CABAC формата : Да
Параметр RefFrames формата : 14 кадров
Идентификатор кодека : V_MPEG4/ISO/AVC
Продолжительность : 1 ч. 8 м.
Битрейт : 2996 Кбит/сек
Ширина : 718 пикселей
Высота : 574 пикселя
Соотношение сторон : 4:3
Режим частоты кадров : Постоянный
Частота кадров : 25,000 кадров/сек
Цветовое пространство : YUV
Субдискретизация насыщенности : 4:2:0
Битовая глубина : 8 бит
Тип развёртки : Прогрессивная
Бит/(Пиксели*Кадры) : 0.291
Размер потока : 1,43 Гбайт (92%)
Библиотека кодирования : x264 core 152 r2851kMod ba24899
Настройки программы : cabac=1 / ref=14 / deblock=1:-2:-2 / analyse=0x3:0x133 / me=umh / subme=10 / psy=1 / fade_compensate=0.00 / psy_rd=1.05:0.10 / mixed_ref=1 / me_range=40 / chroma_me=1 / trellis=2 / 8x8dct=1 / cqm=0 / deadzone=21,11 / fast_pskip=1 / chroma_qp_offset=-3 / threads=12 / lookahead_threads=2 / sliced_threads=0 / nr=0 / decimate=1 / interlaced=0 / bluray_compat=0 / constrained_intra=0 / bframes=8 / b_pyramid=2 / b_adapt=2 / b_bias=0 / direct=1 / weightb=1 / open_gop=0 / weightp=2 / keyint=250 / keyint_min=25 / scenecut=40 / intra_refresh=0 / rc=crf / mbtree=0 / crf=17.3000 / qcomp=0.63 / qpmin=0 / qpmax=33 / qpstep=4 / ip_ratio=1.40 / pb_ratio=1.30 / aq=2:0.80
Язык : English
Default : Да
Forced : Нет
Цветовой диапазон : Limited
Основные цвета : BT.601 PAL
Характеристики трансфера : BT.470 System B/G
Коэффициенты матрицы : BT.470 System B/G

Аудио
Идентификатор : 2
Формат : AC-3
Формат/Информация : Audio Coding 3
Коммерческое название : Dolby Digital
Идентификатор кодека : A_AC3
Продолжительность : 1 ч. 8 м.
Вид битрейта : Постоянный
Битрейт : 192 Кбит/сек
Каналы : 1 канал
ChannelLayout : C
Частота : 48,0 КГц
Частота кадров : 31,250 кадров/сек (1536 SPF)
Метод сжатия : С потерями
Размер потока : 94,0 Мбайт (6%)
Язык : Russian
ServiceKind/String : Complete Main
Default : Да
Forced : Нет

Просьба отключить блокировщики рекламы на странице скриншотов по адресу: http://3.lostpic.net/, этим Вы поможете существованию проекта. Заранее спасибо!
The Show Must Go On
Посмотреть товар в профиле пользователя

Нажмите на изображение, чтобы увидеть в полный размер  
1 шт.
Нажмите на изображение, чтобы увидеть в полный размер  
1 шт.
Нажмите на изображение, чтобы увидеть в полный размер  
1 шт.
Нажмите на изображение, чтобы увидеть в полный размер  
1 шт.
Нажмите на изображение, чтобы увидеть в полный размер  
1 шт.
Нажмите на изображение, чтобы увидеть в полный размер  
1 шт.
Нажмите на изображение, чтобы увидеть в полный размер  
1 шт.
Нажмите на изображение, чтобы увидеть в полный размер  
1 шт.
Нажмите на изображение, чтобы увидеть в полный размер  
1 шт.
Нажмите на изображение, чтобы увидеть в полный размер  
1 шт.
Нажмите на изображение, чтобы увидеть в полный размер  
1 шт.
Нажмите на изображение, чтобы увидеть в полный размер  
1 шт.
Нажмите на изображение, чтобы увидеть в полный размер  
1 шт.
Нажмите на изображение, чтобы увидеть в полный размер  
1 шт.
Нажмите на изображение, чтобы увидеть в полный размер  
1 шт.
КУБКИ

СТАЖ

МЕДАЛИ
Награды:152

За активную помощь проекту (5) За отличные раздачи и качество (100) За подробное оформление раздач (3) За отличные комментарии (7) Почётный форумчанин (2) Верный Сид (31) За участие в конкурсах/играх (2) 3 место в конкурсах/играх (1)

Аватара пользователя
Тортуга
filbi1976
Администратор-Корсар
Раздачи группы KORSAR разрешено перезаливать спустя 7 дней после публикации и с обязательным добавлением банера
  • Торрент
Для скачивания торрента необходимо зарегистрироваться или войти на трекер.

Сообщение verybigpapa » 22 дек 2019, 20:38

Уважаемый filbi1976, большое спасибо. :hi: :respect:
Улыбайтесь, господа! Улыбайтесь!
КУБКИ

СТАЖ

МЕДАЛИ
Награды:67

Пожизненный VIP+ (1) За активную помощь проекту (26) Лучший по количеству кубков (9) За отличные раздачи и качество (1) За отличные комментарии (11) Почётный форумчанин (1) Верный Сид (18)

Аватара пользователя
СССР
verybigpapa
Заслуженный Корсар-Вип+

Сообщение dimas » 22 дек 2019, 20:43

Спасибо Уважаемый Мастер filbi1976 за выполненный заказ! :hi: :senks2: :10 balov:
КУБКИ

СТАЖ

МЕДАЛИ
Награды:11

За активную помощь проекту (3) За отличные раздачи и качество (1) За отличные комментарии (6) Почётный форумчанин (1)

Аватара пользователя
Belarus
dimas
Заслуженный Корсар-Вип

Сообщение Garry » 22 дек 2019, 21:14

Благодарю за отличный фильм. :10 balov: :good:
КУБКИ

СТАЖ

МЕДАЛИ
Награды:58

Пожизненный VIP+ (1) За активную помощь проекту (16) Лучший по количеству кубков (18) За отличные раздачи и качество (1) За отличные комментарии (10) Почётный форумчанин (1) Верный Сид (11)

Аватара пользователя
СССР
Garry
Заслуженный Корсар-Вип+

Сообщение bst78 » 23 дек 2019, 10:37

Большое спасибо :hi: :yahoo: :bajan: :good: :10 balov: :respect:
КУБКИ

СТАЖ

МЕДАЛИ
Награды:24

Пожизненный VIP+ (1) За активную помощь проекту (12) За отличные раздачи и качество (1) За отличные комментарии (7) Почётный форумчанин (1) Верный Сид (2)

Аватара пользователя
СССР
bst78
Заслуженный Корсар-Вип+

Сообщение filbi1976 » 23 дек 2019, 14:34

Всем пожалуйста! :hi:
The Show Must Go On
Посмотреть товар в профиле пользователя

Нажмите на изображение, чтобы увидеть в полный размер  
1 шт.
Нажмите на изображение, чтобы увидеть в полный размер  
1 шт.
Нажмите на изображение, чтобы увидеть в полный размер  
1 шт.
Нажмите на изображение, чтобы увидеть в полный размер  
1 шт.
Нажмите на изображение, чтобы увидеть в полный размер  
1 шт.
Нажмите на изображение, чтобы увидеть в полный размер  
1 шт.
Нажмите на изображение, чтобы увидеть в полный размер  
1 шт.
Нажмите на изображение, чтобы увидеть в полный размер  
1 шт.
Нажмите на изображение, чтобы увидеть в полный размер  
1 шт.
Нажмите на изображение, чтобы увидеть в полный размер  
1 шт.
Нажмите на изображение, чтобы увидеть в полный размер  
1 шт.
Нажмите на изображение, чтобы увидеть в полный размер  
1 шт.
Нажмите на изображение, чтобы увидеть в полный размер  
1 шт.
Нажмите на изображение, чтобы увидеть в полный размер  
1 шт.
Нажмите на изображение, чтобы увидеть в полный размер  
1 шт.
КУБКИ

СТАЖ

МЕДАЛИ
Награды:152

За активную помощь проекту (5) За отличные раздачи и качество (100) За подробное оформление раздач (3) За отличные комментарии (7) Почётный форумчанин (2) Верный Сид (31) За участие в конкурсах/играх (2) 3 место в конкурсах/играх (1)

Аватара пользователя
Тортуга
filbi1976
Администратор-Корсар

Сообщение poletov » 26 мар 2020, 09:27

Отличный боевик,рекомендую к просмотру :10 balov: :good: :super:
КУБКИ

СТАЖ

МЕДАЛИ
Награды:14

За отличные раздачи и качество (1) За отличные комментарии (10) Почётный форумчанин (2) Верный Сид (1)

Аватара пользователя
Russia
poletov
Заслуженный Корсар


Вернуться в Наше современное кино



Uptime по данным Ping-Admin.Ru - сервиса мониторинга доступности сайтов
Рейтинг@Mail.ru