logo
Международный русскоязычный
торрент-трекер
Menu
Doublon
Поделиться с друзьями: 
Голосуй за Корсар и получи 500 дублонов
Рейтинг торрент трекеров - UpTracker.ru

Чёрная Пантера / Black Panther (2018, фантастика, боевик, приключения, BDRip-AVC) | Лицензия

Сообщение Pupok_88 » 11 май 2018, 22:39

Название: Чёрная Пантера
Оригинальное название: Black Panther
Год выпуска: 2018
Жанр: фантастика, боевик, приключения
Режиссер: Райан Куглер / Ryan Coogler
В ролях: Чедвик Боузман, Майкл Б. Джордан, Лупита Нионго, Данай Джекесай Гурира, Мартин Фриман, Дэниэл Калуя, Летишиа Райт, Уинстон Дьюк, Стерлинг К. Браун, Анджела Бассетт

Страна: США
Студия: Marvel Studios Inc., Walt Disney Pictures
Продолжительность: 02:14:33
Перевод: Профессиональный (дублированный) Blu-Ray «Nevafilm»

Описание: С первого взгляда можно решить, что Ваканда — обычная территория дикой Африки, но это не так. Здесь, в недрах пустынных земель, скрываются залежи уникального металла, способного поглощать вибрацию. Многие пытались добраться до него, разоряя всё на своём пути и принося смерть аборигенам, но каждый раз таинственный дух саванны — Чёрная Пантера — вставал на защиту угнетённых.
Спустя много лет беда снова приходит в Ваканду, и в этот раз враг заручился поддержкой современных технологий. Когда шансов почти не остаётся, Т`Чалла, молодой принц Ваканды, узнаёт, что именно ему предстоит возродить легенду и продолжить вечную борьбу, надев маску Чёрной Пантеры.




Качество: BDRip-AVC | Сэмпл
Формат: MKV
Видео: AVC, 1152x482 (2.40:1), 3280 kbps, 23.976 fps, 0.246 bit/pixel
Аудио 1: AC3 Dolby Digital, 3/2 (L,C,R,l,r) + LFE ch, 48.0 KHz, 448 Kbps | Дубляж. Русский |
Аудио 2: AC3 Dolby Digital, 2/0 (L,R) ch, 48 kHz, 192 kbps | Дубляж. Украинский |
Аудио 3: AC3 Dolby Digital, 3/2 (L,C,R,l,r) + LFE ch, 48.0 KHz, 448 Kbps | Оригинал. Английский |
Субтитры: Русские (Форсированные, Полные, SDH), Английские (Forced, Full, SDH, SDH-Colored)
Навигация по главам: есть

x264 [info]: profile High, level 4.1
x264 [info]: frame I:1804 Avg QP:14.31 size: 92043
x264 [info]: frame P:44132 Avg QP:15.95 size: 35312
x264 [info]: frame B:147625 Avg QP:18.58 size: 10738
x264 [info]: consecutive B-frames: 2.7% 3.0% 10.3% 24.3% 18.9% 28.9% 4.7% 1.1% 1.1% 3.9% 0.4% 0.2% 0.2% 0.3%
x264 [info]: mb I I16..4: 4.4% 75.0% 20.5%
x264 [info]: mb P I16..4: 1.2% 17.2% 3.2% P16..4: 30.7% 27.5% 15.9% 0.0% 0.0% skip: 4.2%
x264 [info]: mb B I16..4: 0.1% 1.7% 0.6% B16..8: 35.7% 15.0% 4.5% direct: 6.0% skip:36.4% L0:42.3% L1:40.3% BI:17.4%
x264 [info]: 8x8 transform intra:76.6% inter:58.5%
x264 [info]: coded y,uvDC,uvAC intra: 86.8% 92.1% 80.2% inter: 25.2% 24.4% 11.2%
x264 [info]: i16 v,h,dc,p: 35% 12% 7% 45%
x264 [info]: i8 v,h,dc,ddl,ddr,vr,hd,vl,hu: 15% 12% 8% 8% 11% 11% 12% 10% 13%
x264 [info]: i4 v,h,dc,ddl,ddr,vr,hd,vl,hu: 28% 7% 4% 7% 12% 11% 11% 9% 10%
x264 [info]: i8c dc,h,v,p: 45% 22% 19% 14%
x264 [info]: Weighted P-Frames: Y:3.9% UV:2.4%
x264 [info]: ref P L0: 50.8% 11.4% 15.6% 5.6% 4.5% 3.1% 2.8% 1.5% 1.4% 1.1% 1.1% 1.0% 0.1% 0.0%
x264 [info]: ref B L0: 75.6% 10.8% 5.1% 2.5% 1.7% 1.3% 1.1% 0.7% 0.6% 0.4% 0.2%
x264 [info]: ref B L1: 94.8% 5.2%
x264 [info]: kb/s:3279.61
General
Unique ID : 202362201078526604585286720717753004289 (0x983D8AD20152982983A750DBC66DB101)
Complete name : Black Panther (2018).mkv
Format : Matroska
Format version : Version 4 / Version 2
File size : 4.05 GiB
Duration : 2 h 14 min
Overall bit rate : 4 301 kb/s
Movie name : Чёрная Пантера / Black Panther ( 2018 )
Encoded date : UTC 2018-05-11 00:44:24
Writing application : mkvmerge v8.1.0 ('Psychedelic Postcard') 64bit
Writing library : libebml v1.3.1 + libmatroska v1.4.2
Cover : Yes
Attachments : cover.jpg
Video
ID : 1
Format : AVC
Format/Info : Advanced Video Codec
Format profile : High@L4.1
Format settings : CABAC / 12 Ref Frames
Format settings, CABAC : Yes
Format settings, ReFrames : 12 frames
Codec ID : V_MPEG4/ISO/AVC
Duration : 2 h 14 min
Bit rate : 3 280 kb/s
Width : 1 152 pixels
Height : 482 pixels
Display aspect ratio : 2.40:1
Frame rate mode : Constant
Frame rate : 23.976 (24000/1001) FPS
Color space : YUV
Chroma subsampling : 4:2:0
Bit depth : 8 bits
Scan type : Progressive
Bits/(Pixel*Frame) : 0.246
Stream size : 3.08 GiB (76%)
Title : Black Panther (2018) By optik.1557
Writing library : x264 core 155 r2901 7d0ff22
Encoding settings : cabac=1 / ref=12 / deblock=1:-2:-1 / analyse=0x3:0x113 / me=umh / subme=10 / psy=1 / psy_rd=1.05:0.01 / mixed_ref=1 / me_range=32 / chroma_me=1 / trellis=2 / 8x8dct=1 / cqm=0 / deadzone=21,11 / fast_pskip=0 / chroma_qp_offset=-3 / threads=6 / lookahead_threads=1 / sliced_threads=0 / nr=0 / decimate=1 / interlaced=0 / bluray_compat=0 / constrained_intra=0 / bframes=13 / b_pyramid=2 / b_adapt=2 / b_bias=0 / direct=1 / weightb=1 / open_gop=0 / weightp=2 / keyint=250 / keyint_min=23 / scenecut=40 / intra_refresh=0 / rc_lookahead=60 / rc=crf / mbtree=0 / crf=16.8 / qcomp=0.70 / qpmin=0 / qpmax=69 / qpstep=4 / vbv_maxrate=50000 / vbv_bufsize=62500 / crf_max=0.0 / nal_hrd=none / filler=0 / ip_ratio=1.40 / pb_ratio=1.30 / aq=3:0.85
Language : English
Default : Yes
Forced : No
Audio #1
ID : 2
Format : AC-3
Format/Info : Audio Coding 3
Codec ID : A_AC3
Duration : 2 h 14 min
Bit rate mode : Constant
Bit rate : 384 kb/s
Channel(s) : 6 channels
Channel positions : Front: L C R, Side: L R, LFE
Sampling rate : 48.0 kHz
Frame rate : 31.250 FPS (1536 SPF)
Bit depth : 16 bits
Compression mode : Lossy
Stream size : 370 MiB (9%)
Title : Дубляж (iTunes)
Language : Russian
Service kind : Complete Main
Default : Yes
Forced : No
Audio #2
ID : 3
Format : AC-3
Format/Info : Audio Coding 3
Codec ID : A_AC3
Duration : 2 h 14 min
Bit rate mode : Constant
Bit rate : 192 kb/s
Channel(s) : 2 channels
Channel positions : Front: L R
Sampling rate : 48.0 kHz
Frame rate : 31.250 FPS (1536 SPF)
Bit depth : 16 bits
Compression mode : Lossy
Stream size : 185 MiB (4%)
Title : Дубляж
Language : Ukrainian
Service kind : Complete Main
Default : No
Forced : No
Audio #3
ID : 4
Format : AC-3
Format/Info : Audio Coding 3
Codec ID : A_AC3
Duration : 2 h 14 min
Bit rate mode : Constant
Bit rate : 448 kb/s
Channel(s) : 6 channels
Channel positions : Front: L C R, Side: L R, LFE
Sampling rate : 48.0 kHz
Frame rate : 31.250 FPS (1536 SPF)
Bit depth : 16 bits
Compression mode : Lossy
Stream size : 431 MiB (10%)
Title : Original
Language : English
Service kind : Complete Main
Default : No
Forced : No
Text #1
ID : 5
Format : UTF-8
Codec ID : S_TEXT/UTF8
Codec ID/Info : UTF-8 Plain Text
Duration : 2 h 12 min
Bit rate : 2 b/s
Count of elements : 77
Stream size : 2.20 KiB (0%)
Title : Форсированные
Language : Russian
Default : Yes
Forced : No
Text #2
ID : 6
Format : UTF-8
Codec ID : S_TEXT/UTF8
Codec ID/Info : UTF-8 Plain Text
Duration : 2 h 14 min
Bit rate : 64 b/s
Count of elements : 1460
Stream size : 63.8 KiB (0%)
Title : Полные
Language : Russian
Default : No
Forced : No
Text #3
ID : 7
Format : UTF-8
Codec ID : S_TEXT/UTF8
Codec ID/Info : UTF-8 Plain Text
Duration : 2 h 14 min
Bit rate : 69 b/s
Count of elements : 1566
Stream size : 68.5 KiB (0%)
Title : Полные (Focs)
Language : Russian
Default : No
Forced : No
Text #4
ID : 8
Format : UTF-8
Codec ID : S_TEXT/UTF8
Codec ID/Info : UTF-8 Plain Text
Duration : 2 h 14 min
Bit rate : 78 b/s
Count of elements : 1849
Stream size : 77.3 KiB (0%)
Title : SDH
Language : Russian
Default : No
Forced : No
Text #5
ID : 9
Format : UTF-8
Codec ID : S_TEXT/UTF8
Codec ID/Info : UTF-8 Plain Text
Duration : 2 h 10 min
Bit rate : 1 b/s
Count of elements : 68
Stream size : 1.15 KiB (0%)
Title : Forced
Language : English
Default : No
Forced : No
Text #6
ID : 10
Format : UTF-8
Codec ID : S_TEXT/UTF8
Codec ID/Info : UTF-8 Plain Text
Duration : 2 h 14 min
Bit rate : 42 b/s
Count of elements : 1585
Stream size : 41.6 KiB (0%)
Title : Full
Language : English
Default : No
Forced : No
Text #7
ID : 11
Format : UTF-8
Codec ID : S_TEXT/UTF8
Codec ID/Info : UTF-8 Plain Text
Duration : 2 h 14 min
Bit rate : 49 b/s
Count of elements : 1835
Stream size : 48.2 KiB (0%)
Title : SHD
Language : English
Default : No
Forced : No
Text #8
ID : 12
Format : UTF-8
Codec ID : S_TEXT/UTF8
Codec ID/Info : UTF-8 Plain Text
Duration : 2 h 14 min
Bit rate : 66 b/s
Count of elements : 1834
Stream size : 65.1 KiB (0%)
Title : SDH-Colored
Language : English
Default : No
Forced : No
Menu
00:00:00.000 : en:The Story Of Home
00:06:56.291 : en:Succession To The Throne
00:12:02.805 : en:"Time To Be King"
00:19:12.360 : en:"Let The Challenge Begin"
00:28:32.961 : en:The Ancestral Plane
00:33:11.698 : en:Extradition
00:40:57.497 : en:Casino Mission
00:48:34.036 : en:Busan Car Chase
00:53:46.098 : en:Interrogation
01:01:57.339 : en:Sacrifices
01:08:33.026 : en:Blood Rights
01:16:46.769 : en:Ritual Combat
01:22:24.022 : en:"Burn It All"
01:31:21.434 : en:Jabariland
01:41:15.361 : en:Two Panthers
01:50:56.483 : en:The Battle For Wakanda
01:59:16.941 : en:A New Wakanda
02:02:43.648 : en:End Credits
КУБКИ

СТАЖ

МЕДАЛИ
Награды:62

За помощь проекту (2) Лучший по количеству кубков (17) За отличные раздачи и качество (16) За отличные комментарии (3) Почётный форумчанин (2) Верный Сид (21) 1 место в конкурсах/играх (1)

Аватара пользователя
СССР
Pupok_88
Заслуженный Корсар-Вип+
  • Торрент
Для скачивания торрента необходимо зарегистрироваться или войти на трекер.

Вернуться в Зарубежное кино (2011-2019)



Uptime по данным Ping-Admin.Ru - сервиса мониторинга доступности сайтов
Рейтинг@Mail.ru Голосуйте за наш сайт в каталоге Rubo.Ru