logo
Международный русскоязычный
торрент-трекер
Menu

Doublon
Поделиться с друзьями: 
Голосуй за Корсар и получи 400 дублонов
Рейтинг торрент трекеров - UpTracker.ru

Человек-муравей и Оса / Ant-Man and the Wasp (2018, фантастика, боевик, приключения, BDRip-HEVC 1080p) - KORSAR | Лицензия

Сообщение Cthulhu » 12 окт 2018, 22:47

Название: Человек-муравей и Оса
Оригинальное название: Ant-Man and the Wasp
Год выхода: 2018
Жанр: фантастика, боевик, приключения
Режиссер: Пейтон Рид
В ролях: Пол Радд, Эванджелин Лилли, Майкл Пенья, Уолтон Гоггинс, Бобби Каннавейл, Джуди Грир, Ти Ай, Давид Дастмалчян, Ханна Джон-Кэймен, Эбби Райдер Фортсон

О фильме: Скотт Лэнг, известный также, как Человек-Муравей уже заслужил право оказаться в команде Мстителей, но желание быть ближе к собственной дочке удерживает его в родном Сан-Франциско - до тех пор, пока доктор Хэнк Пим, создавший когда-то изменяющий размеры своего владельца чудо-костюм, не призывает Скотта присоединиться к новой, опасной миссии. А помогать в противостоянии с коварным врагом Человеку-Муравью будет новая напарница - Оса.



Страна: США
Студия: Marvel Studios
Продолжительность: 01:58:31
Перевод: Профессиональный дублированный

Кодек: HEVC x265
Качество: BDRip-HEVC 1080p
Видео: 1920x804 (2.40:1), 5258 Кбит/сек, 0.142 бит/(Пиксели*Кадры), 23.976 (24000/1001) кадр/сек, HEVC (Main10@L.4.1@High) 10 бит
Звук:
Аудио1: Русская, AC3 640 Кбит/сек, 6 канала(ов),16bit 48,0 КГц Дублированный (Лицензия)
Аудио2: English, AC3 640 Кбит/сек, 6 канала(ов),16bit 48,0 КГц
Субтитры: Русские (форсированные, полные, SDH), English (SDH, SDH colored)
Навигация по главам: Есть

x265 [info]: frame I: 2259, Avg QP:14.18 kb/s: 21018.66
x265 [info]: frame P: 34687, Avg QP:15.87 kb/s: 10836.49
x265 [info]: frame B: 132961, Avg QP:18.45 kb/s: 3534.28
x265 [info]: consecutive B-frames: 11.7% 5.8% 6.6% 32.5% 10.2% 16.7% 5.7% 6.1% 2.0% 1.6% 0.6% 0.4%

General
Unique ID : 292525025265100379588136004150305827881 (0xDC124543AFD3A0F8976C412437852C29)
Complete name : F:\HEVC\Ant-Man and the Wasp (2018) BDRip-HEVC 1080p - KORSAR.mkv
Format : Matroska
Format version : Version 4 / Version 2
File size : 5.40 GiB
Duration : 1 h 58 min
Overall bit rate : 6 542 kb/s
Movie name : rip_by_Cthulhu
Encoded date : UTC 2018-11-08 15:42:13
Writing application : mkvmerge v28.2.0 ('The Awakening') 64-bit
Writing library : libebml v1.3.6 + libmatroska v1.4.9
Cover : Yes
Attachments : cover.jpg

Video
ID : 1
Format : HEVC
Format/Info : High Efficiency Video Coding
Format profile : Main 10@L4.1@High
Codec ID : V_MPEGH/ISO/HEVC
Duration : 1 h 58 min
Bit rate : 5 258 kb/s
Width : 1 920 pixels
Height : 804 pixels
Display aspect ratio : 2.40:1
Frame rate mode : Constant
Frame rate : 23.976 (24000/1001) FPS
Color space : YUV
Chroma subsampling : 4:2:0
Bit depth : 10 bits
Bits/(Pixel*Frame) : 0.142
Stream size : 4.34 GiB (80%)
Writing library : x265 2.8+10-703eade86b53:[Windows][GCC 8.1.0][64 bit] 10bit
Encoding settings : cpuid=1176575 / frame-threads=4 / numa-pools=16 / wpp / no-pmode / no-pme / no-psnr / no-ssim / log-level=2 / input-csp=1 / input-res=1920x804 / interlace=0 / total-frames=169907 / level-idc=41 / high-tier=1 / uhd-bd=0 / ref=5 / no-allow-non-conformance / no-repeat-headers / annexb / no-aud / no-hrd / info / hash=0 / no-temporal-layers / open-gop / min-keyint=23 / keyint=240 / gop-lookahead=0 / bframes=11 / b-adapt=2 / b-pyramid / bframe-bias=0 / rc-lookahead=60 / lookahead-slices=0 / scenecut=40 / radl=0 / no-intra-refresh / ctu=32 / min-cu-size=8 / rect / amp / max-tu-size=32 / tu-inter-depth=4 / tu-intra-depth=4 / limit-tu=1 / rdoq-level=1 / dynamic-rd=0.00 / no-ssim-rd / signhide / no-tskip / nr-intra=0 / nr-inter=0 / no-constrained-intra / no-strong-intra-smoothing / max-merge=5 / limit-refs=2 / limit-modes / me=3 / subme=7 / merange=57 / temporal-mvp / weightp / weightb / no-analyze-src-pics / deblock=-3:-3 / no-sao / no-sao-non-deblock / rd=6 / no-early-skip / rskip / no-fast-intra / no-tskip-fast / no-cu-lossless / b-intra / no-splitrd-skip / rdpenalty=0 / psy-rd=2.00 / psy-rdoq=1.00 / no-rd-refine / no-lossless / cbqpoffs=0 / crqpoffs=0 / rc=crf / crf=18.0 / qcomp=0.60 / qpstep=4 / stats-write=0 / stats-read=0 / vbv-maxrate=50000 / vbv-bufsize=50000 / vbv-init=0.9 / crf-max=0.0 / crf-min=0.0 / ipratio=1.40 / pbratio=1.30 / aq-mode=2 / aq-strength=1.00 / no-cutree / zone-count=0 / no-strict-cbr / qg-size=32 / no-rc-grain / qpmax=69 / qpmin=0 / no-const-vbv / sar=1 / overscan=0 / videoformat=5 / range=0 / colorprim=1 / transfer=1 / colormatrix=1 / chromaloc=0 / display-window=0 / max-cll=0,0 / min-luma=0 / max-luma=1023 / log2-max-poc-lsb=8 / vui-timing-info / vui-hrd-info / slices=1 / no-opt-qp-pps / no-opt-ref-list-length-pps / no-multi-pass-opt-rps / scenecut-bias=0.05 / no-opt-cu-delta-qp / aq-motion / no-hdr / no-hdr-opt / no-dhdr10-opt / no-idr-recovery-sei / analysis-reuse-level=5 / scale-factor=0 / refine-intra=0 / refine-inter=0 / refine-mv=0 / no-limit-sao / ctu-info=0 / no-lowpass-dct / refine-mv-type=0 / copy-pic=1 / max-ausize-factor=1.0 / no-dynamic-refine / no-single-sei
Language : English
Default : Yes
Forced : No
Color range : Limited
Color primaries : BT.709
Transfer characteristics : BT.709
Matrix coefficients : BT.709

Audio #1
ID : 2
Format : AC-3
Format/Info : Audio Coding 3
Mode extension : CM (complete main)
Format settings, Endianness : Big
Codec ID : A_AC3
Duration : 1 h 58 min
Bit rate mode : Constant
Bit rate : 640 kb/s
Channel(s) : 6 channels
Channel positions : Front: L C R, Side: L R, LFE
Sampling rate : 48.0 kHz
Frame rate : 31.250 FPS (1536 spf)
Compression mode : Lossy
Stream size : 541 MiB (10%)
Title : Dub (Лицензия)
Language : Russian
Default : Yes
Forced : Yes

Audio #2
ID : 3
Format : AC-3
Format/Info : Audio Coding 3
Mode extension : CM (complete main)
Format settings, Endianness : Big
Codec ID : A_AC3
Duration : 1 h 58 min
Bit rate mode : Constant
Bit rate : 640 kb/s
Channel(s) : 6 channels
Channel positions : Front: L C R, Side: L R, LFE
Sampling rate : 48.0 kHz
Frame rate : 31.250 FPS (1536 spf)
Compression mode : Lossy
Stream size : 541 MiB (10%)
Title : Original
Language : English
Default : No
Forced : No

Text #1
ID : 4
Format : UTF-8
Codec ID : S_TEXT/UTF8
Codec ID/Info : UTF-8 Plain Text
Duration : 1 h 54 min
Bit rate : 0 b/s
Count of elements : 6
Stream size : 337 Bytes (0%)
Title : RUS Forced
Language : Russian
Default : Yes
Forced : No

Text #2
ID : 5
Format : UTF-8
Codec ID : S_TEXT/UTF8
Codec ID/Info : UTF-8 Plain Text
Duration : 1 h 57 min
Bit rate : 103 b/s
Count of elements : 2152
Stream size : 89.7 KiB (0%)
Title : RUS Full
Language : Russian
Default : No
Forced : No

Text #3
ID : 6
Format : UTF-8
Codec ID : S_TEXT/UTF8
Codec ID/Info : UTF-8 Plain Text
Duration : 1 h 57 min
Bit rate : 104 b/s
Count of elements : 2152
Stream size : 89.8 KiB (0%)
Title : RUS SDH
Language : Russian
Default : No
Forced : No

Text #4
ID : 7
Format : UTF-8
Codec ID : S_TEXT/UTF8
Codec ID/Info : UTF-8 Plain Text
Duration : 1 h 57 min
Bit rate : 68 b/s
Count of elements : 2136
Stream size : 59.2 KiB (0%)
Language : English
Default : No
Forced : No

Text #5
ID : 8
Format : UTF-8
Codec ID : S_TEXT/UTF8
Codec ID/Info : UTF-8 Plain Text
Duration : 1 h 57 min
Bit rate : 68 b/s
Count of elements : 2136
Stream size : 59.3 KiB (0%)
Title : SDH
Language : English
Default : No
Forced : No

Text #6
ID : 9
Format : UTF-8
Codec ID : S_TEXT/UTF8
Codec ID/Info : UTF-8 Plain Text
Duration : 1 h 57 min
Bit rate : 98 b/s
Count of elements : 2138
Stream size : 85.2 KiB (0%)
Title : SDH Colored
Language : English
Default : No
Forced : No

Menu
00:00:00.000 : en:00:00:00.000
00:04:03.034 : en:00:04:03.034
00:10:16.407 : en:00:10:16.407
00:13:39.861 : en:00:13:39.861
00:21:25.451 : en:00:21:25.451
00:29:07.829 : en:00:29:07.829
00:36:09.084 : en:00:36:09.084
00:40:56.579 : en:00:40:56.579
00:50:17.431 : en:00:50:17.431
00:58:59.077 : en:00:58:59.077
01:04:56.434 : en:01:04:56.434
01:12:54.287 : en:01:12:54.287
01:18:32.124 : en:01:18:32.124
01:24:44.913 : en:01:24:44.913
01:29:47.340 : en:01:29:47.340
01:36:16.270 : en:01:36:16.270
01:43:35.334 : en:01:43:35.334
01:46:59.830 : en:01:46:59.830



Автор: Cthulhu
КУБКИ

СТАЖ

МЕДАЛИ
Награды:25

За помощь проекту (3) Лучший по количеству кубков (1) За отличные раздачи и качество (13) Почётный форумчанин (2) Верный Сид (4)

Аватара пользователя
СССР
Cthulhu
Главный Модератор-Корсар
Раздачи группы KORSAR разрешено перезаливать спустя сутки после публикации
  • Торрент
Для скачивания торрента необходимо зарегистрироваться или войти на трекер.

Сообщение AVALS » 25 окт 2018, 21:27

Большое спасибо за раздачу!!! Очень большая скорость раздачи!!! Скажите пожалуйста, на смарт тв Samsung Q7 фильм пойдёт в этом формате (BDRip-HEVC 1080p) Заранее благодарю за ответ!
МЕДАЛИ


Аватара пользователя
Russia
AVALS
Опытный Корсар

Сообщение kisa1980 » 25 окт 2018, 21:37

AVALS писал(а):на смарт тв Samsung Q7 фильм пойдёт в этом формате

Да. :hi:
КУБКИ

СТАЖ

МЕДАЛИ
Награды:50

За помощь проекту (7) Лучший по количеству кубков (3) За отличные раздачи и качество (16) За подробное оформление раздач (4) За отличные комментарии (4) Почётный форумчанин (3) Верный Сид (9) За участие в конкурсах/играх (2)

Аватара пользователя
Тортуга
kisa1980
Главный помощник Администратора-Корсар

Сообщение Cthulhu » 08 ноя 2018, 18:56

Раздача обновлена, звук заменен на лицензию.
КУБКИ

СТАЖ

МЕДАЛИ
Награды:25

За помощь проекту (3) Лучший по количеству кубков (1) За отличные раздачи и качество (13) Почётный форумчанин (2) Верный Сид (4)

Аватара пользователя
СССР
Cthulhu
Главный Модератор-Корсар


Вернуться в Фильмы HEVC (HEVC Video)



Uptime по данным Ping-Admin.Ru - сервиса мониторинга доступности сайтов
Рейтинг@Mail.ru Голосуйте за наш сайт в каталоге Rubo.Ru