logo
Международный русскоязычный
торрент-трекер
Menu
Поделиться с друзьями: 
Голосуй за Корсар и получи 500 дублонов
Рейтинг торрент трекеров - UpTracker.ru

Час / The Hour / Сезон: 01-02 / Серии: 01-12 из 12 (2011-2012, драма, HDTV 1080i) | Кинопоказ

Сообщение Nemow80 » 01 апр 2020, 17:07

Название: Час
Оригинальное название: The Hour
Год выпуска: 2011-2012
Жанр: Драма
Режиссёр: Джэми Пэйн, Гарри Брэдбир, Коки Гидройч
В ролях: Ромола Гарай, Бен Уишоу, Доминик Уэст, Анна Чэнселлор, Джош МакГуайр, Лиза Гринвуд, Уна Чаплин, Джулиан Райнд-Татт, Пол Чахиди,Энтон Лессер

О фильме: Сериал повествует о том, как сложно в 1950-х годах было создавать передачу об актуальной политике: в то время большинство политиков и руководители Би-би-си выступали за то, чтобы новости о том, что происходит в мире, не передавались в прямом эфире. Кроме того, они хотели сохранить запрет на обсуждение на ТВ всего, что касалось дебатов в парламенте.



Страна: Великобритания
Продолжительность: 12x ~ 00:53:00
Перевод: Профессиональный (многоголосый, закадровый) | Кинопоказ

Качество: HDTV 1080i
Формат: TS
Видео: 1920x1080 25 fps, AVC/H.264, ~10000 Кбит/сек avg
Аудио 1: Russian: 48 kHz, MP2, 2.0 (L,R) ch, ~192 kbps avg |Многоголосый закадровый, Кинопоказ|
Аудио 2: Russian: 48 kHz, AC3, 5.1 (Front: L C R, Side: L R, LFE) ch, ~448 kbps avg |Многоголосый закадровый, Кинопоказ|
Cубтитры: Нет

Автор: Nemow80


Общее
Идентификатор : 1 (0x1)
Полное имя : G:\Раздать\Час (01-02 сезон HDTV1080i)\Час (1 сезон)\Час (01 серия).ts
Формат : MPEG-TS
Размер файла : 4,02 Гбайт
Продолжительность : 53 м. 31 с.
Режим общего битрейта : Переменный
Общий поток : 10,7 Мбит/сек

Видео
Идентификатор : 3031 (0xBD7)
Идентификатор меню : 1 (0x1)
Формат : AVC
Формат/Информация : Advanced Video Codec
Профиль формата : Main@L4
Настройки формата : CABAC / 4 Ref Frames
Параметр CABAC формата : Да
Параметр RefFrames формата : 4 кадра
Параметр GOP формата : M=1, N=32
Идентификатор кодека : 27
Продолжительность : 53 м. 31 с.
Битрейт : 9572 Кбит/сек
Ширина : 1920 пикселей
Высота : 1080 пикселей
Соотношение сторон : 16:9
Частота кадров : 25,000 кадров/сек
Цветовое пространство : YUV
Субдискретизация насыщенности : 4:2:0
Битовая глубина : 8 бит
Тип развёртки : Чересстрочная
Метод сохранения типа развёртки : Раздельные поля
Порядок развёртки : Верхнее поле первое
Бит/(Пиксели*Кадры) : 0.185
Размер потока : 3,58 Гбайт (89%)
Цветовой диапазон : Limited
Основные цвета : BT.709
Характеристики трансфера : BT.709
Коэффициенты матрицы : BT.709

Аудио #1
Идентификатор : 3032 (0xBD8)
Идентификатор меню : 1 (0x1)
Формат : MPEG Audio
Версия формата : Version 1
Профиль формата : Layer 2
Идентификатор кодека : 3
Продолжительность : 53 м. 31 с.
Вид битрейта : Постоянный
Битрейт : 192 Кбит/сек
Каналы : 2 канала
Частота : 48,0 КГц
Частота кадров : 41,667 кадра/сек (1152 SPF)
Метод сжатия : С потерями
Размер потока : 73,5 Мбайт (2%)
Язык : Russian

Аудио #2
Идентификатор : 3033 (0xBD9)
Идентификатор меню : 1 (0x1)
Формат : AC-3
Формат/Информация : Audio Coding 3
Идентификатор кодека : 6
Продолжительность : 53 м. 31 с.
Вид битрейта : Постоянный
Битрейт : 448 Кбит/сек
Каналы : 6 каналов
Расположение каналов : Front: L C R, Side: L R, LFE
Частота : 48,0 КГц
Частота кадров : 31,250 кадров/сек (1536 SPF)
Битовая глубина : 16 бит
Метод сжатия : С потерями
Размер потока : 172 Мбайт (4%)
Язык : Russian
ServiceKind/String : Complete Main
Последний раз редактировалось Nemow80 01 апр 2020, 17:21, всего редактировалось 3 раз(а).
КУБКИ

СТАЖ

МЕДАЛИ
Награды:12

За отличные раздачи и качество (4) За подробное оформление раздач (1) Верный Сид (2)

Аватара пользователя
Nemow80
Релизёр-Корсар
  • Торрент
Для скачивания торрента необходимо зарегистрироваться или войти на трекер.

Вернуться в Зарубежные сериалы (Сборники сезонов / HD Video)



Uptime по данным Ping-Admin.Ru - сервиса мониторинга доступности сайтов
Рейтинг@Mail.ru