logo
Международный русскоязычный
торрент-трекер
Menu

Doublon
Поделиться с друзьями: 
Голосуй за Корсар и получи 400 дублонов
Рейтинг торрент трекеров - UpTracker.ru

Бравый солдат Швейк / Dobry vojak Svejk (1957, Комедия, военный, DVDRip-AVC)

Сообщение mister.hats » 09 ноя 2018, 13:42

Бравый солдат Швейк / Dobry vojak Svejk


Год выпуска: 1957
Жанр: Комедия, военный,
Страна: Чехословакия / Czech Republic / Студия худ. фильмов
Продолжительность: 01:45:00
Перевод: Полное дублирование (Ленфильм, СССР 1957)

Режиссер: Карел Стеклы
В ролях: Рудольф Грушински /Rudolf Hrusinsky, Милош Копецкий /Milos Kopecky, Святоплюк Бенес /Svatopluk Benes, Франтишек Филиповский /Frantisek Filipovsky, Бозена Хавликова /Bozena Havlickova, Джозеф Хиномац /Josef Hlinomaz, Ева Cвободова /Eva Svobodova

Описание: Экранизация романа Ярослава Гашека «Похождения бравого солдата Швейка».



Кодек: х264
Качество: DVDRip-AVC
Видео: MPEG-4 AVC, 5000 Кбит/с, 696х574@742х574, 25 кадр/с
Аудиo 1: Русский, AC3, 2 ch, 192 Кбит/с
Аудио 2: Чешский, AC3, 2 ch, 224 Кбит/с
Субтитры: Нет
Главы: Есть



x264 [info]: frame I:848 Avg QP:18.15 size: 84133
x264 [info]: frame P:35429 Avg QP:20.08 size: 50592
x264 [info]: frame B:121225 Avg QP:22.45 size: 17113

Общее
Уникальный идентификатор : 252975573175703944317229027771088447217 (0xBE5152BA779010B2811FEFFD874126F1)
Полное имя : H:\кино\Бравый солдат Швейк 1957_DVDRip-AVC.mkv
Формат : Matroska
Версия формата : Version 2
Размер файла : 3,97 Гбайт
Продолжительность : 1 ч. 45 м.
Общий поток : 5419 Кбит/сек
Дата кодирования : UTC 2018-11-09 10:27:21
Программа кодирования : mkvmerge v5.8.0 ('No Sleep / Pillow') built on Sep 2 2012 15:37:04
Библиотека кодирования : libebml v1.2.3 + libmatroska v1.3.0

Видео
Идентификатор : 1
Формат : AVC
Формат/Информация : Advanced Video Codec
Профиль формата : High@L4.1
Настройки формата : CABAC / 15 Ref Frames
Параметр CABAC формата : Да
Параметр RefFrames формата : 15 кадров
Идентификатор кодека : V_MPEG4/ISO/AVC
Продолжительность : 1 ч. 45 м.
Битрейт : 5000 Кбит/сек
Ширина : 696 пикселей
Высота : 574 пикселя
Соотношение сторон : 1,293
Режим частоты кадров : Постоянный
Частота кадров : 25,000 кадров/сек
Цветовое пространство : YUV
Субдискретизация насыщенности : 4:2:0
Битовая глубина : 8 бит
Тип развёртки : Прогрессивная
Бит/(Пиксели*Кадры) : 0.501
Размер потока : 3,59 Гбайт (90%)
Библиотека кодирования : x264 core 152 r2851kMod ba24899
Настройки программы : cabac=1 / ref=15 / deblock=1:-2:-2 / analyse=0x3:0x133 / me=umh / subme=11 / psy=1 / fade_compensate=0.00 / psy_rd=0.97:0.00 / mixed_ref=1 / me_range=48 / chroma_me=1 / trellis=2 / 8x8dct=1 / cqm=0 / deadzone=21,11 / fast_pskip=0 / chroma_qp_offset=-2 / threads=12 / lookahead_threads=2 / sliced_threads=0 / nr=0 / decimate=0 / interlaced=0 / bluray_compat=0 / constrained_intra=0 / bframes=8 / b_pyramid=2 / b_adapt=2 / b_bias=0 / direct=3 / weightb=1 / open_gop=0 / weightp=2 / keyint=250 / keyint_min=25 / scenecut=40 / intra_refresh=0 / rc_lookahead=40 / rc=2pass / mbtree=0 / bitrate=5000 / ratetol=1.0 / qcomp=0.60 / qpmin=0 / qpmax=39 / qpstep=4 / cplxblur=20.0 / qblur=0.5 / vbv_maxrate=50000 / vbv_bufsize=62500 / nal_hrd=none / filler=0 / ip_ratio=1.25 / pb_ratio=1.30 / aq=1:0.70
Язык : English
Default : Да
Forced : Нет
Цветовой диапазон : Limited
Основные цвета : BT.601 PAL
Характеристики трансфера : BT.470 System B, BT.470 System G
Коэффициенты матрицы : BT.470 System B, BT.470 System G

Аудио #1
Идентификатор : 2
Формат : AC-3
Формат/Информация : Audio Coding 3
Параметр Endianness формата : Big
Идентификатор кодека : A_AC3
Продолжительность : 1 ч. 45 м.
Вид битрейта : Постоянный
Битрейт : 192 Кбит/сек
Каналы : 2 канала
Расположение каналов : Front: L R
Частота : 48,0 КГц
Частота кадров : 31,250 кадров/сек (1536 SPF)
Битовая глубина : 16 бит
Метод сжатия : С потерями
Размер потока : 144 Мбайт (4%)
Язык : Russian
Default : Да
Forced : Нет

Аудио #2
Идентификатор : 3
Формат : AC-3
Формат/Информация : Audio Coding 3
Параметр Endianness формата : Big
Идентификатор кодека : A_AC3
Продолжительность : 1 ч. 45 м.
Вид битрейта : Постоянный
Битрейт : 224 Кбит/сек
Каналы : 2 канала
Расположение каналов : Front: L R
Частота : 48,0 КГц
Частота кадров : 31,250 кадров/сек (1536 SPF)
Битовая глубина : 16 бит
Метод сжатия : С потерями
Размер потока : 168 Мбайт (4%)
Язык : Chechen
Default : Нет
Forced : Нет

Меню
00:00:00.000 : en:Chapter 1
00:04:37.160 : en:Chapter 2
00:09:50.720 : en:Chapter 3
00:15:33.920 : en:Chapter 4
00:22:04.960 : en:Chapter 5
00:30:24.160 : en:Chapter 6
00:36:20.880 : en:Chapter 7
00:41:31.840 : en:Chapter 8
00:47:55.600 : en:Chapter 9
00:55:46.720 : en:Chapter 10
01:05:57.200 : en:Chapter 11
01:14:39.280 : en:Chapter 12
01:20:09.480 : en:Chapter 13
01:24:48.720 : en:Chapter 14
01:33:58.880 : en:Chapter 15
01:40:47.080 : en:Chapter 16


Последний раз редактировалось mister.hats 09 ноя 2018, 14:01, всего редактировалось 2 раз(а).

Тот кто не с нами, тот против нас
КУБКИ

СТАЖ

МЕДАЛИ
Награды:51

За помощь проекту (7) Лучший по количеству кубков (12) За отличные раздачи и качество (21) За подробное оформление раздач (2) За отличные комментарии (1) Верный Сид (8)

Аватара пользователя
Тортуга
mister.hats
Заслуженный Корсар-Вип
  • Торрент
Для скачивания торрента необходимо зарегистрироваться или войти на трекер.

Сообщение Khargor » 09 ноя 2018, 20:27

Спасибо большое! :hi: А в таком же качестве "Швейк на фронте / Poslusne hlasim" будет?
КУБКИ

СТАЖ

МЕДАЛИ
Награды:2

Верный Сид (2)

Аватара пользователя
СССР
Khargor
Опытный Корсар

Сообщение mister.hats » 09 ноя 2018, 22:18

Khargor писал(а):Спасибо большое! :hi: А в таком же качестве "Швейк на фронте / Poslusne hlasim" будет?

Есесьно)) Только чуть погодя.

Тот кто не с нами, тот против нас
КУБКИ

СТАЖ

МЕДАЛИ
Награды:51

За помощь проекту (7) Лучший по количеству кубков (12) За отличные раздачи и качество (21) За подробное оформление раздач (2) За отличные комментарии (1) Верный Сид (8)

Аватара пользователя
Тортуга
mister.hats
Заслуженный Корсар-Вип

Сообщение verybigpapa » 09 ноя 2018, 23:15

Уважаемый mister.hats, большое спасибо. :hi: :respect:
Улыбайтесь, господа! Улыбайтесь!
КУБКИ

СТАЖ

МЕДАЛИ
Награды:39

За помощь проекту (15) Лучший по количеству кубков (9) За отличные комментарии (5) Верный Сид (10)

Аватара пользователя
СССР
verybigpapa
Заслуженный Корсар-Вип

Сообщение Khargor » 10 ноя 2018, 07:11

mister.hats писал(а):
Khargor писал(а):Спасибо большое! :hi: А в таком же качестве "Швейк на фронте / Poslusne hlasim" будет?

Есесьно)) Только чуть погодя.

Спасибо :hi: :good:
КУБКИ

СТАЖ

МЕДАЛИ
Награды:2

Верный Сид (2)

Аватара пользователя
СССР
Khargor
Опытный Корсар

Сообщение filbi1976 » 10 ноя 2018, 07:27

Khargor писал(а):
mister.hats писал(а):
Khargor писал(а):Спасибо большое! :hi: А в таком же качестве "Швейк на фронте / Poslusne hlasim" будет?

Есесьно)) Только чуть погодя.

Спасибо :hi: :good:

Ребята, вы конечно извините, но мы не кому не отказываем, но для этого есть стол заказов и сделан он не просто так.
Про то что заказы в коментариях запрещены, это я только для того кто не читает эти правила.
КУБКИ

СТАЖ

МЕДАЛИ
Награды:65

За помощь проекту (1) За отличные раздачи и качество (49) Верный Сид (12) За участие в конкурсах/играх (1)

Аватара пользователя
Тортуга
filbi1976
Администратор-Корсар

Сообщение mister.hats » 10 ноя 2018, 07:46

filbi1976 писал(а):Ребята, вы конечно извините, но мы не кому не отказываем, но для этого есть стол заказов и сделан он не просто так.
Про то что заказы в коментариях запрещены, это я только для того кто не читает эти правила.

Я за тему заказов не писал, т.к. фильм был уже на кодировании... :hi:

Тот кто не с нами, тот против нас
КУБКИ

СТАЖ

МЕДАЛИ
Награды:51

За помощь проекту (7) Лучший по количеству кубков (12) За отличные раздачи и качество (21) За подробное оформление раздач (2) За отличные комментарии (1) Верный Сид (8)

Аватара пользователя
Тортуга
mister.hats
Заслуженный Корсар-Вип

Сообщение kwazar312 » 10 ноя 2018, 13:20

Цитаты из романа
===================================================================================================
1. В сумасшедшем доме каждый мог говорить все, что взбредет ему в голову, словно в парламенте.
2.....Хорошо воспитанный человек может читать все.
3.Бывало, наверное, и так: вдруг ваш собутыльник хватается за голову, вскакивает и кричит: «Иисус Мария! В восемь часов я должен был быть на службе!» Это так называемый приступ осознания служебного долга, который наступает у человека в результате расщепления угрызений совести.
4.От стен полицейского управления веяло духом чуждой народу власти.
А ядовитые газы для нашего брата — дело привычное еще с казарм — после солдатского хлеба да гороха с крупой.
5.Без жульничества тоже нельзя. Если бы все люди заботились только о благополучии других, то еще скорее передрались бы между собой.
6.В атмосфере продажной любви, никотина и алкоголя незримо витал старый девиз: «После нас — хоть потоп».
7.Не всем же быть умными. В виде исключения должны быть также и глупые, потому что если бы все были умными, то на свете было бы столько ума, что от этого каждый второй человек стал бы совершеннейшим идиотом.
Уважаемый mister.hats,большое спасибо за фильм.Удачи ВАМ.
КУБКИ

СТАЖ

МЕДАЛИ
Награды:64

За помощь проекту (7) Лучший по количеству кубков (16) За отличные комментарии (10) Верный Сид (25) За участие в конкурсах/играх (6)

Аватара пользователя
kwazar312
Заслуженный Корсар-Вип


Вернуться в Классика зарубежного кино (фильмы до 1980 года)



Uptime по данным Ping-Admin.Ru - сервиса мониторинга доступности сайтов
Рейтинг@Mail.ru Голосуйте за наш сайт в каталоге Rubo.Ru