logo
Международный русскоязычный
торрент-трекер

Больше, чем врач / Серии: 1-4 из 4 (2016, мелодрама, SATRip-AVC)

Сообщение aleksan55 » 06 янв 2017, 23:08

Год выпуска: 2016
Производство: Россия, "Аквилон медиа"
Жанр: мелодрама
Продолжительность: 00:46:00
Субтитры: нет

Режиссёр: Кира Ангелина

В ролях: Екатерина Семёнова, Андрей Егоров, Алёна Ивченко, Анна Мареева, Сергей Варчук, Владимир Гориславец, Александр Никитин, Евгений Фроленков, Евгения Ахременко.


Описание: Участковый врач Людмила Корнеева для каждого пациента находит и время, и доброе слово поддержки. Только на семью времени не хватает. Однако доктор уверена – муж и дочь понимают её, ничто не может угрожать семейному счастью. Людмила как всегда не может сопровождать мужа на ответственное мероприятие. С Михаилом отправляется соседка Света – старая подруга семьи, с которой Корнеевы прошли огонь, воду и медные трубы. Неожиданно Михаил задаёт себе вопрос: а ту ли женщину он выбрал?..



Качество: SATRip-AVC
Формат: MKV
Видео кодек: H.264
Аудио кодек: AC3
Видео: MPEG4 Video (H264), 720x400, 25fps,1300 Kbps,bit/pixel 0.181
Аудио: AC3 48000Hz, stereo, 192kbps,2 ch


Общее
Уникальный идентификатор : 245078444144830873205512321275507332439 (0xB8606434C5A02E32B3AA2D730E315557)
Полное имя : E:\Больше, чем врач\02 серия_Больше, чем врач_rip by_Aleksan55.mkv
Формат : Matroska
Версия формата : Version 2
Размер файла : 487 Мбайт
Продолжительность : 45 м.
Общий поток : 1494 Кбит/сек
Дата кодирования : UTC 2017-01-06 03:50:10
Программа кодирования : mkvmerge v7.8.0 ('River Man') 32bit built on Apr 3 2015 12:11:22
Библиотека кодирования : libebml v1.3.1 + libmatroska v1.4.2

Видео
Идентификатор : 1
Формат : AVC
Формат/Информация : Advanced Video Codec
Профиль формата : High@L4.1
Параметр CABAC формата : Да
Параметр ReFrames формата : 14 кадров
Идентификатор кодека : V_MPEG4/ISO/AVC
Продолжительность : 45 м.
Битрейт : 1300 Кбит/сек
Ширина : 720 пикселей
Высота : 400 пикселей
Соотношение сторон : 16:9
Режим частоты кадров : Постоянный
Частота кадров : 25,000 кадров/сек
Цветовое пространство : YUV
Субдискретизация насыщенности : 4:2:0
Битовая глубина : 8 бит
Тип развёртки : Прогрессивная
Бит/(Пиксели*Кадры) : 0.181
Размер потока : 415 Мбайт (85%)
Библиотека кодирования : x264 core 148 r2638 7599210
Настройки программы : cabac=1 / ref=14 / deblock=1:-1:-1 / analyse=0x3:0x133 / me=umh / subme=9 / psy=1 / psy_rd=1.00:0.25 / mixed_ref=0 / me_range=32 / chroma_me=1 / trellis=2 / 8x8dct=1 / cqm=0 / deadzone=21,11 / fast_pskip=0 / chroma_qp_offset=-4 / threads=3 / lookahead_threads=3 / sliced_threads=0 / nr=0 / decimate=0 / interlaced=0 / bluray_compat=0 / constrained_intra=0 / bframes=14 / b_pyramid=2 / b_adapt=1 / b_bias=0 / direct=3 / weightb=1 / open_gop=0 / weightp=2 / keyint=250 / keyint_min=25 / scenecut=40 / intra_refresh=0 / rc_lookahead=60 / rc=2pass / mbtree=1 / bitrate=1300 / ratetol=1.0 / qcomp=0.85 / qpmin=0 / qpmax=40 / qpstep=4 / cplxblur=20.0 / qblur=0.5 / ip_ratio=1.40 / aq=1:1.20
Default : Да
Forced : Нет
Цветовой диапазон : Limited
Основные цвета : BT.601 PAL
Характеристики трансфера : BT.470 System B, BT.470 System G
Коэффициенты матрицы : BT.601

Аудио
Идентификатор : 2
Формат : AC-3
Формат/Информация : Audio Coding 3
Расширение режима : CM (complete main)
Параметр Endianness формата : Big
Идентификатор кодека : A_AC3
Продолжительность : 45 м.
Вид битрейта : Постоянный
Битрейт : 192 Кбит/сек
Каналы : 2 канала
Расположение каналов : Front: L R
Частота : 48,0 КГц
Метод сжатия : С потерями
Размер потока : 62,6 Мбайт (13%)
Default : Да
Forced : Нет




Рекламы нет.
Аватара пользователя
aleksan55
Главный Модератор-Корсар
 
Месяцев на трекере: 5Месяцев на трекере: 5Месяцев на трекере: 5Месяцев на трекере: 5Месяцев на трекере: 5
 
Раздал: 14.25 ТБ
Зарегистрирован: 06 авг 2016, 18:07

  • Торрент
Автор: aleksan55 Хэш: ---
Добавлен: 06 янв 2017, 23:08 Приватный: Нет (DHT включён)
Статус: Проверен
Размер: 1.93 ГБ (2 074 616 815 байт)
Изменил:
---
Скачали: 0 (Раздающих: 100%)
Причина:
---
Здоровье: 100%
Сидеров: 1 Личеров: 0
Скорость раздачи: 0 байт/сек Скорость скачивания: 0 байт/сек
Последний сидер: 10 минут 48 секунд назад Последний личер: Нет
Для скачивания торрента необходимо зарегистрироваться или войти на трекер.

Вернуться в Русские сериалы

cron
cron