logo
Международный русскоязычный
торрент-трекер
Menu
Doublon
Поделиться с друзьями: 
Голосуй за Корсар и получи 500 дублонов
Рейтинг торрент трекеров - UpTracker.ru

Близкие контакты третьей степени / Close Encounters of the Third Kind (1977, фантастика, приключения, драма, комедия, BDRip-HEVC 1080p) | Режиссерская версия | 4K REMASTERED

Сообщение grab777 » 14 янв 2020, 17:41

Название: Близкие контакты третьей степени
Оригинальное название: Close Encounters of the Third Kind
Год выхода: 1977
Жанр: Фантастика, приключения, драма, комедия
Режиссер: Стивен Спилберг
В ролях: Ричард Дрейфусс, Франсуа Трюффо, Тери Гарр, Мелинда Диллон, Боб Бэлабан, Дж. Патрик МакНамара, Уоррен Дж. Кеммерлинг, Робертс Блоссом, Филип Доддс, Кэри Гуффи, Лэнс Хенриксен

О фильме: Сбои в подаче электроэнергии, возвращение из ниоткуда самолетов, исчезнувших в 1945 году, обескураживают ученых. Наименее скептичные люди науки расценивают эти явления, как прямое доказательство существования разумной инопланетной формы жизни. Выехавший на повреждение электрик Рой Нери встретился с настоящим НЛО: автомобиль, в котором ехал Рой, попал под мощный пучок света, затем над шоссе пронеслись 4 светящихся шара и пропали за горизонтом. После контакта с внеземной цивилизацией Рой оказывается во власти странных видений, и это происходит не только с ним.



Выпущено: США, Columbia Pictures Corporation, EMI Films Ltd., Julia Phillips and Michael Phillips Productions
Продолжительность: 02:17:14
Перевод: Дублированный, многоголосый закадровый

Качество: BDRip-HEVC 1080p
Видео: HEVC/H.265, 1920x804, ~12,9 Мbps
Аудио 1:AC3, 2 ch, 192 Kbps - Русский, дублированный (TV1000)
Аудио 2:AC3, 6 ch, 448 Kbps - Русский, MVO (R5)
Аудио 3: AC3, 6 ch, 448 Kbps - Английский
Субтитры: Русские, английские



Релиз от: Mr. Fox

Общее
Уникальный идентификатор : 82732458209938586951693319225755611741 (0x3E3DB11DFE92C38AD84C1FB3D7D8B25D)
Полное имя : R:Close Encounters of the Third Kind (1977) BDRip 1080p [HEVC].mkv
Формат : Matroska
Версия формата : Version 4 / Version 2
Размер файла : 13,4 Гбайт
Продолжительность : 2 ч. 17 м.
Общий поток : 14,0 Мбит/сек
Название фильма : Close Encounters of the Third Kind (1977)
Дата кодирования : UTC 2020-01-14 06:19:59
Программа кодирования : mkvmerge v40.0.0 ('Old Town Road + Pony') 64-bit
Библиотека кодирования : libebml v1.3.9 + libmatroska v1.5.2
Обложка : Yes
Attachments : cover.jpg

Видео
Идентификатор : 1
Формат : HEVC
Формат/Информация : High Efficiency Video Coding
Профиль формата : Main 10@L4.1@High
Идентификатор кодека : V_MPEGH/ISO/HEVC
Продолжительность : 2 ч. 17 м.
Битрейт : 12,9 Мбит/сек
Ширина : 1920 пикселей
Высота : 804 пикселя
Соотношение сторон : 2,40:1
Режим частоты кадров : Постоянный
Частота кадров : 23,976 (23976/1000) кадра/сек
Частота кадров в оригинале : 23,976 (24000/1001) кадра/сек
Цветовое пространство : YUV
Субдискретизация насыщенности : 4:2:0
Битовая глубина : 10 бит
Бит/(Пиксели*Кадры) : 0.348
Размер потока : 12,3 Гбайт (92%)
Библиотека кодирования : x265 3.2.1+1-b5c86a64bbbe:[Windows][MSVC 1923][64 bit] 10bit
Настройки программы : cpuid=1111039 / frame-threads=3 / numa-pools=12 / wpp / no-pmode / no-pme / no-psnr / no-ssim / log-level=2 / input-csp=1 / input-res=1920x804 / interlace=0 / total-frames=2261 / level-idc=41 / high-tier=1 / uhd-bd=0 / ref=5 / no-allow-non-conformance / no-repeat-headers / annexb / no-aud / no-hrd / info / hash=0 / no-temporal-layers / open-gop / min-keyint=23 / keyint=240 / gop-lookahead=0 / bframes=14 / b-adapt=2 / b-pyramid / bframe-bias=0 / rc-lookahead=60 / lookahead-slices=4 / scenecut=40 / radl=0 / no-splice / no-intra-refresh / ctu=32 / min-cu-size=8 / rect / amp / max-tu-size=32 / tu-inter-depth=4 / tu-intra-depth=4 / limit-tu=1 / rdoq-level=2 / dynamic-rd=0.00 / no-ssim-rd / signhide / no-tskip / nr-intra=0 / nr-inter=0 / no-constrained-intra / no-strong-intra-smoothing / max-merge=4 / limit-refs=2 / limit-modes / me=3 / subme=7 / merange=57 / temporal-mvp / no-hme / weightp / weightb / no-analyze-src-pics / deblock=-3:-3 / no-sao / no-sao-non-deblock / rd=6 / selective-sao=0 / no-early-skip / no-rskip / no-fast-intra / no-tskip-fast / no-cu-lossless / no-b-intra / no-splitrd-skip / rdpenalty=0 / psy-rd=2.00 / psy-rdoq=1.00 / no-rd-refine / no-lossless / cbqpoffs=0 / crqpoffs=0 / rc=crf / crf=20.0 / qcomp=0.65 / qpstep=4 / stats-write=0 / stats-read=0 / vbv-maxrate=50000 / vbv-bufsize=50000 / vbv-init=0.9 / crf-max=0.0 / crf-min=0.0 / ipratio=1.40 / pbratio=1.30 / aq-mode=1 / aq-strength=1.00 / no-cutree / zone-count=0 / no-strict-cbr / qg-size=32 / no-rc-grain / qpmax=69 / qpmin=0 / no-const-vbv / sar=1 / overscan=0 / videoformat=5 / range=0 / colorprim=1 / transfer=1 / colormatrix=1 / chromaloc=0 / display-window=0 / cll=0,0 / min-luma=0 / max-luma=1023 / log2-max-poc-lsb=8 / vui-timing-info / vui-hrd-info / slices=1 / no-opt-qp-pps / no-opt-ref-list-length-pps / no-multi-pass-opt-rps / scenecut-bias=0.05 / no-opt-cu-delta-qp / no-aq-motion / no-hdr / no-hdr-opt / no-dhdr10-opt / no-idr-recovery-sei / analysis-reuse-level=5 / scale-factor=0 / refine-intra=0 / refine-inter=0 / refine-mv=1 / refine-ctu-distortion=0 / no-limit-sao / ctu-info=0 / no-lowpass-dct / refine-analysis-type=0 / copy-pic=1 / max-ausize-factor=1.0 / no-dynamic-refine / no-single-sei / no-hevc-aq / no-svt / no-field / qp-adaptation-range=1.00
Default : Да
Forced : Нет
Цветовой диапазон : Limited
Основные цвета : BT.709
Характеристики трансфера : BT.709
Коэффициенты матрицы : BT.709

Аудио #1
Идентификатор : 2
Формат : AC-3
Формат/Информация : Audio Coding 3
Идентификатор кодека : A_AC3
Продолжительность : 2 ч. 17 м.
Вид битрейта : Постоянный
Битрейт : 192 Кбит/сек
Каналы : 2 канала
Расположение каналов : Front: L R
Частота : 48,0 КГц
Частота кадров : 31,250 кадров/сек (1536 SPF)
Битовая глубина : 16 бит
Метод сжатия : С потерями
Размер потока : 188 Мбайт (1%)
Заголовок : Dub, TV1000
Язык : Russian
ServiceKind/Strin : Complete Main
Default : Да
Forced : Нет

Аудио #2
Идентификатор : 3
Формат : AC-3
Формат/Информация : Audio Coding 3
Идентификатор кодека : A_AC3
Продолжительность : 2 ч. 17 м.
Вид битрейта : Постоянный
Битрейт : 448 Кбит/сек
Каналы : 6 каналов
Расположение каналов : Front: L C R, Side: L R, LFE
Частота : 48,0 КГц
Частота кадров : 31,250 кадров/сек (1536 SPF)
Битовая глубина : 16 бит
Метод сжатия : С потерями
Размер потока : 440 Мбайт (3%)
Заголовок : MVO, R5
Язык : Russian
ServiceKind/Strin : Complete Main
Default : Нет
Forced : Нет

Аудио #3
Идентификатор : 4
Формат : AC-3
Формат/Информация : Audio Coding 3
Идентификатор кодека : A_AC3
Продолжительность : 2 ч. 17 м.
Вид битрейта : Постоянный
Битрейт : 448 Кбит/сек
Каналы : 6 каналов
Расположение каналов : Front: L C R, Side: L R, LFE
Частота : 48,0 КГц
Частота кадров : 31,250 кадров/сек (1536 SPF)
Битовая глубина : 16 бит
Метод сжатия : С потерями
Размер потока : 440 Мбайт (3%)
Заголовок : Оригинал
Язык : English
ServiceKind/Strin : Complete Main
Default : Нет
Forced : Нет

Текст #1
Идентификатор : 5
Формат : UTF-8
Идентификатор кодека : S_TEXT/UTF8
Идентификатор кодека/Информация : UTF-8 Plain Text
Продолжительность : 2 ч. 11 м.
Битрейт : 63 бит/сек
ElementCount : 1015
Размер потока : 60,8 Кбайт (0%)
Язык : Russian
Default : Нет
Forced : Нет

Текст #2
Идентификатор : 6
Формат : UTF-8
Идентификатор кодека : S_TEXT/UTF8
Идентификатор кодека/Информация : UTF-8 Plain Text
Продолжительность : 2 ч. 11 м.
Битрейт : 36 бит/сек
ElementCount : 1105
Размер потока : 35,1 Кбайт (0%)
Язык : English
Default : Нет
Forced : Нет

Меню
00:00:00.000 : en:Start
00:11:04.413 : en:Sonora Desert, Mexico
00:14:41.422 : en:Barry
00:19:57.321 : en:The Neary Family
00:24:07.404 : en:Close Encounter: First Kind
00:37:22.573 : en:In Pursuit
00:48:38.790 : en:Gobi Desert, Mongolia
01:01:18.299 : en:Dharmsala, Northern India
01:19:32.600 : en:Roy, Jillian & Barry
01:22:03.835 : en:"Here They Come!"
01:26:26.639 : en:Contacting the Guilers
01:34:00.092 : en:Noticing Something Strange
01:42:35.816 : en:Roy's Sculpture
01:45:42.377 : en:Moorcroft, Wyoming Reunion
01:48:48.271 : en:Cross-Country Detour
01:53:43.399 : en:"We Need Answers"
01:57:49.729 : en:Making Their Escape
02:02:00.521 : en:Evading the Army
02:05:52.544 : en:Targets Approaching
02:11:32.425 : en:Making Contact

КУБКИ

СТАЖ

МЕДАЛИ
Награды:5

За отличные раздачи и качество (1) Почётный форумчанин (1)

Аватара пользователя
Ukraine
grab777
Уважаемый Релизёр-Корсар
  • Торрент
Для скачивания торрента необходимо зарегистрироваться или войти на трекер.

Сообщение kwazar312 » 14 янв 2020, 18:31

1977 год — это четые года до первого «Индианы Джонса», десять до «Империи солнца» и шестнадцать до «Списка Шиндлера». В те времена, когда Спилберг был просто режиссером, который снимал кино на чьи-то деньги, он снял кино о контактах с внеземными цивилизациями. Внеземные цивилизации оказались добрыми и очень даже музыкальными, а Спилбергу так понравилось снимать кино о человеке, который умудряется сталкиваться с инопланетянами и семейными проблемами одновременно (да еще непонятно, что страшнее), что почти тридцать лет спустя он снял «Войну миров».В общем-то, если бы не расписанное мне детское воспоминание о том, насколько страшна картина прилетающих инопланетян, у меня даже и мысли не возникло бы посмотреть этот фильм. Однако чужие детские воспоминания возымели эффект.О старых фильмах всегда сложно говорить. Вот и в данном случае при просмотре все время приходилось напоминать себе, что это снимали аж в семьдесят седьмом.
За тридцать лет Спилберг ох как поднаторел в страшилках, щупальцах и прочем. Однако не буду врать: в середине фильма был момент, который мне показался очень жутким. А конец очень красив.
Вот так и получается. Киноманам — смотреть весь фильм, просто интересующимся — момент забирания ребенка и сцену прилета дружественной цивилизации.
Уважаемый grab777,спасибо за раздачу.
:hi: :hi: :good:
КУБКИ

СТАЖ

МЕДАЛИ
Награды:131

За активную помощь проекту (13) Лучший по количеству кубков (40) За отличные раздачи и качество (3) За отличные комментарии (22) Почётный форумчанин (1) Верный Сид (46) За участие в конкурсах/играх (6)

Аватара пользователя
kwazar312
Заслуженный Корсар-Вип


Вернуться в Фильмы HEVC (HEVC Video)



Uptime по данным Ping-Admin.Ru - сервиса мониторинга доступности сайтов
Рейтинг@Mail.ru