logo
Международный русскоязычный
торрент-трекер
Menu
Doublon
Поделиться с друзьями: 
Голосуй за Корсар и получи 500 дублонов
Рейтинг торрент трекеров - UpTracker.ru

Благие знамения / Good Omens / Сезон: 01 / Серии: 01-06 из 06 (2019, Драма, фэнтези, приключения, WEB-DLRip-AVC) | LostFilm, AlexFilm

Сообщение Korsarka » 10 июл 2019, 01:54

Название: Благие знамения
Оригинальное название: Good Omens
Год выхода: 2019
Жанр: фэнтези, комедия
Режиссер: Дуглас Маккиннон
В ролях: Майкл Шин, Дэвид Теннант, Фрэнсис МакДорманд, Шан Брук, Дэниэл Мейс, Сэм Тейлор Бак, Джон Хэмм, Адриа Архона, Пол Чахиди, Нед Деннехи

Описание: У семи нянек дитя без глазу. Как оказалось, правило это распространяется и на сверхъестественных существ - демона Кроули Дэвид Теннант и ангела Азирафэля Майкл Шин, у которых дитя и вовсе куда-то запропастилось. И речь не о простом ребенке, а о посланнике ада, Антихристе, чей приход на Землю сулит ей неминуемую гибель. Начальство обеих сторон - Рай и Ад - сделали свои ставки и теперь с замиранием сердец или что там находится в их груди ждут великой битвы. Всадники Апокалипсиса уже завели своих железных коней и готовы выезжать. Не готовы к битве лишь двое - те самые демон Кроули и ангел Азирафэль. Они жили на Земле с начала сотворения, присматривали за человечеством, толкали людей на злодеяния или благие поступки, а сами тем временем искренне полюбили Землю и все ее радости. Гибель планеты будет значить никаких больше рок-концертов и раритетных авто для Кроули и старинных книг да вкусных суши для Азирафэля. Два гедониста не возжелали возвращаться домой и решили вопреки распоряжениям своих контор работать вместе. Ведь если не дать Антихристу склониться ни к добру, ни ко злу, он не займет ничью сторону и останется обычным мальчиком. Вот только в ночь рождения младенцев перепутали, и Кроули с Азирафэлем теперь должны найти настоящего беса. Так, всеми завиральными методами, продолжая разыгрывать сцену перед начальством, демон и и ангел отправились искать нужного парнишку. Вот только отсчет времени до апокалипсиса перешел на дни...



Страна: Великобритания, США
Студия: Amazon Studios, BBC Studios
Продолжительность: ~00:51:00 серия
Перевод: Профессиональный (многоголосый, закадровый) LostFilm
Профессиональный (многоголосый, закадровый) Alexfilm

Формат: MKV
Качество: WEB-DLRip-AVC
Видео: MPEG-4 AVC, 1024х434 (16:9), ~ 1850 Kbit/s, 25.000 fps, 0,131 bpp
Звук:
Аудио 1: 48 kHz, AC3, 5.1 ch, 384 Kbps | RUS | Alexfilm
Аудио 2: 48 kHz, AC3, 5.1 ch, 384 Kbps | RUS | LostFilm
Аудио 3: 48 kHz, AC3, 5.1 ch, 384 Kbps | ENG
Субтитры: Russian (forced, full), English (SDH) (внешние, *srt)

01. In the Beginning / В начале
02. The Book / Книга
03. Hard Times / Трудные времена
04. Saturday Morning Funtime / Веселье утром в субботу
05. The Doomsday Option / Выбор Судного дня
06. The Very Last Day of the Rest of Their Lives / Последний день их оставшейся жизни


General
Unique ID : 245170433817558569145441580904497048973 (0xB8721BA5AD0BA0E78863908B6F686D8D)
Complete name : C:Good.Omens.s01.2xRus.WEB-DL.AVC.ExKinoRayGood.Omens.s01e01.WEB-DL.AVC.ExKinoRay.mkv
Format : Matroska
Format version : Version 2
File size : 1.08 GiB
Duration : 51 min
Overall bit rate : 3 005 kb/s
Movie name : Good Omens s01e01 2019 from ExKinoRay
Encoded date : UTC 2019-07-09 18:48:12
Writing application : mkvmerge v5.6.0 ('Kenya Kane') built on May 27 2012 16:44:04
Writing library : libebml v1.2.3 + libmatroska v1.3.0
Attachments : Good Omens.jpg

Video
ID : 1
Format : AVC
Format/Info : Advanced Video Codec
Format profile : High@L4.1
Format settings, CABAC : Yes
Format settings, ReFrames : 11 frames
Codec ID : V_MPEG4/ISO/AVC
Duration : 51 min
Bit rate : 1 850 kb/s
Width : 1 024 pixels
Height : 434 pixels
Display aspect ratio : 2.35:1
Frame rate mode : Constant
Frame rate : 25.000 FPS
Color space : YUV
Chroma subsampling : 4:2:0
Bit depth : 8 bits
Scan type : Progressive
Bits/(Pixel*Frame) : 0.167
Stream size : 657 MiB (60%)
Title : Enigma
Writing library : x264 core 152 r2851 ba24899
Encoding settings : cabac=1 / ref=11 / deblock=1:-2:-2 / analyse=0x3:0x113 / me=umh / subme=10 / psy=1 / psy_rd=1.05:0.10 / mixed_ref=1 / me_range=32 / chroma_me=1 / trellis=2 / 8x8dct=1 / cqm=0 / deadzone=21,11 / fast_pskip=0 / chroma_qp_offset=-3 / threads=12 / lookahead_threads=3 / sliced_threads=0 / nr=0 / decimate=0 / interlaced=0 / bluray_compat=0 / constrained_intra=0 / bframes=12 / b_pyramid=2 / b_adapt=2 / b_bias=0 / direct=3 / weightb=1 / open_gop=0 / weightp=2 / keyint=250 / keyint_min=25 / scenecut=40 / intra_refresh=0 / rc=2pass / mbtree=0 / bitrate=1850 / ratetol=1.0 / qcomp=0.60 / qpmin=0 / qpmax=51 / qpstep=4 / cplxblur=20.0 / qblur=0.5 / ip_ratio=1.40 / pb_ratio=1.30 / aq=1:1.00
Language : English
Default : Yes
Forced : No
Color range : Limited
Color primaries : BT.709
Transfer characteristics : BT.709
Matrix coefficients : BT.709

Audio #1
ID : 2
Format : AC-3
Format/Info : Audio Coding 3
Mode extension : CM (complete main)
Format settings, Endianness : Big
Codec ID : A_AC3
Duration : 51 min
Bit rate mode : Constant
Bit rate : 384 kb/s
Channel(s) : 6 channels
Channel positions : Front: L C R, Side: L R, LFE
Sampling rate : 48.0 kHz
Frame rate : 31.250 FPS (1536 spf)
Compression mode : Lossy
Stream size : 141 MiB (13%)
Title : MVO (AlexFilm)
Language : Russian
Default : Yes
Forced : No

Audio #2
ID : 3
Format : AC-3
Format/Info : Audio Coding 3
Mode extension : CM (complete main)
Format settings, Endianness : Big
Codec ID : A_AC3
Duration : 51 min
Bit rate mode : Constant
Bit rate : 384 kb/s
Channel(s) : 6 channels
Channel positions : Front: L C R, Side: L R, LFE
Sampling rate : 48.0 kHz
Frame rate : 31.250 FPS (1536 spf)
Compression mode : Lossy
Stream size : 141 MiB (13%)
Title : MVO (LostFilm)
Language : Russian
Default : No
Forced : No

Audio #3
ID : 4
Format : AC-3
Format/Info : Audio Coding 3
Mode extension : CM (complete main)
Format settings, Endianness : Big
Codec ID : A_AC3
Duration : 51 min
Bit rate mode : Constant
Bit rate : 384 kb/s
Channel(s) : 6 channels
Channel positions : Front: L C R, Side: L R, LFE
Sampling rate : 48.0 kHz
Frame rate : 31.250 FPS (1536 spf)
Compression mode : Lossy
Stream size : 141 MiB (13%)
Title : Original
Language : English
Default : No
Forced : No

Text #1
ID : 5
Format : UTF-8
Codec ID : S_TEXT/UTF8
Codec ID/Info : UTF-8 Plain Text
Title : Forced
Language : Russian
Default : Yes
Forced : No

Text #2
ID : 6
Format : UTF-8
Codec ID : S_TEXT/UTF8
Codec ID/Info : UTF-8 Plain Text
Title : Full
Language : Russian
Default : No
Forced : No

Text #3
ID : 7
Format : UTF-8
Codec ID : S_TEXT/UTF8
Codec ID/Info : UTF-8 Plain Text
Language : English
Default : No
Forced : No







Релиз от:

Автор релиза:
КУБКИ

СТАЖ

МЕДАЛИ
Награды:55

Лучший по количеству кубков (9) За отличные раздачи и качество (22) За подробное оформление раздач (1) За отличные комментарии (6) Почётный форумчанин (4) Верный Сид (10)

Аватара пользователя
Korsarka
Уважаемый Релизёр-Корсар
  • Торрент
Для скачивания торрента необходимо зарегистрироваться или войти на трекер.

Вернуться в Зарубежные сериалы



Uptime по данным Ping-Admin.Ru - сервиса мониторинга доступности сайтов
Рейтинг@Mail.ru Голосуйте за наш сайт в каталоге Rubo.Ru