logo
Международный русскоязычный
торрент-трекер
Menu

Doublon
Поделиться с друзьями: 
Голосуй за Корсар и получи 400 дублонов
Рейтинг торрент трекеров - UpTracker.ru

Битва драконов / Bridge of Dragons (1999, Боевик, приключения, WEB-DL 1080p) - KORSAR

Сообщение mzma » 11 окт 2018, 18:05

Название: Битва драконов
Оригинальное название: Bridge of Dragons
Год выпуска: 1999
Выпущено: США, Martien Holdings A.V.V., Nu Image Films
Жанр: Боевик, приключения
Режиссер: Айзек Флорентайн
В ролях: Дольф Лундгрен, Кэри-Хироюки Тагава, Валери Чоу, Гэри Хадсон, Джон Беннетт, Скотт Л. Шварц, Джо Кендалл, Дэйв Николс, Башар Рахаль, Велизар Бинев

О фильме: Там, где будущее и прошлое неразделимы, где кровожадный тиран рвется к власти, а народ мирится с угнетением, найдется герой, способный защитить юную принцессу от коварных притязаний злодея и восстановить справедливость в некогда мирном и спокойном королевстве. Лишь ему под силу возглавить отважные отряды повстанцев в решающей битве с вооруженными до зубов армиями врага и разрушить грандиозные планы по узурпации трона и установлению безраздельного господства.



Продолжительность: 01:31:38
Перевод: Профессиональный многоголосый, профессиональный двухголосый
Субтитры: Английские
Навигация по главам: Есть

Качество: WEB-DL 1080p
Видео: MPEG-4 AVC, 5303 Кбит/сек, 1920x1080, 23,976 кадра/сек
Аудио #1: AC3, 2 ch, 224 Кбит/сек | Русский, профессиональный (многоголосый закадровый) Лизард Синема Трейд
Аудио #2: AC3, 2 ch, 192 Кбит/сек | Русский, профессиональный (многоголосый закадровый) РТР
Аудио #3: AC3, 2 ch, 192 Кбит/сек | Русский, профессиональный (двухголосый закадровый) Пирамида
Аудио #4: AC3, 2 ch, 192 Кбит/сек | Русский, профессиональный (двухголосый закадровый) REN-TV
Аудио #5: AC3, 2 ch, 192 Кбит/сек | Русский, профессиональный (двухголосый закадровый) НТВ
Аудио #6: AC3, 6 ch, 384 Кбит/сек | Украинский, профессиональный (двухголосый закадровый) Так треба продакшн
Аудио #7: AC3, 2 ch, 384 Кбит/сек | Английский, оригинал

Сборка:


Общее
Уникальный идентификатор : 239866318608109305613651572177978517923 (0xB4749293AAE78E58A69530F3B203E9A3)
Полное имя : Битва.драконов.1999.WEB-DL.1080p.mkv
Формат : Matroska
Версия формата : Version 2
Размер файла : 4,61 Гбайт
Продолжительность : 1 ч. 31 м.
Общий поток : 7206 Кбит/сек
Дата кодирования : UTC 2018-10-11 14:09:56
Программа кодирования : mkvmerge v5.8.0 ('No Sleep / Pillow') built on Sep 2 2012 15:37:04
Библиотека кодирования : libebml v1.2.3 + libmatroska v1.3.0

Видео
Идентификатор : 1
Формат : AVC
Формат/Информация : Advanced Video Codec
Профиль формата : High@L4
Настройки формата : CABAC / 4 Ref Frames
Параметр CABAC формата : Да
Параметр RefFrames формата : 4 кадра
Идентификатор кодека : V_MPEG4/ISO/AVC
Продолжительность : 1 ч. 31 м.
Битрейт : 5303 Кбит/сек
Ширина : 1920 пикселей
Высота : 1080 пикселей
Соотношение сторон : 16:9
Режим частоты кадров : Постоянный
Частота кадров : 23,976 (24000/1001) кадра/сек
Цветовое пространство : YUV
Субдискретизация насыщенности : 4:2:0
Битовая глубина : 8 бит
Тип развёртки : Прогрессивная
Бит/(Пиксели*Кадры) : 0.107
Размер потока : 3,39 Гбайт (74%)
Язык : English
По умолчанию : Да
Принудительно : Нет
Цветовой диапазон : Limited
Основные цвета : BT.709
Характеристики трансфера : BT.709
Коэффициенты матрицы : BT.709

Аудио #1
Идентификатор : 2
Формат : AC-3
Формат/Информация : Audio Coding 3
Идентификатор кодека : A_AC3
Продолжительность : 1 ч. 31 м.
Вид битрейта : Постоянный
Битрейт : 224 Кбит/сек
Каналы : 2 канала
Расположение каналов : Front: L R
Частота : 48,0 КГц
Частота кадров : 31,250 кадров/сек (1536 SPF)
Битовая глубина : 16 бит
Метод сжатия : С потерями
Размер потока : 147 Мбайт (3%)
Заголовок : MVO | Лизард Синема Трейд
Язык : Russian
По умолчанию : Да
Принудительно : Нет

Аудио #2
Идентификатор : 3
Формат : AC-3
Формат/Информация : Audio Coding 3
Идентификатор кодека : A_AC3
Продолжительность : 1 ч. 31 м.
Вид битрейта : Постоянный
Битрейт : 192 Кбит/сек
Каналы : 2 канала
Расположение каналов : Front: L R
Частота : 48,0 КГц
Частота кадров : 31,250 кадров/сек (1536 SPF)
Битовая глубина : 16 бит
Метод сжатия : С потерями
Размер потока : 126 Мбайт (3%)
Заголовок : MVO | РТР
Язык : Russian
По умолчанию : Нет
Принудительно : Нет

Аудио #3
Идентификатор : 4
Формат : AC-3
Формат/Информация : Audio Coding 3
Идентификатор кодека : A_AC3
Продолжительность : 1 ч. 31 м.
Вид битрейта : Постоянный
Битрейт : 192 Кбит/сек
Каналы : 2 канала
Расположение каналов : Front: L R
Частота : 48,0 КГц
Частота кадров : 31,250 кадров/сек (1536 SPF)
Битовая глубина : 16 бит
Метод сжатия : С потерями
Размер потока : 126 Мбайт (3%)
Заголовок : DVO | Пирамида
Язык : Russian
По умолчанию : Нет
Принудительно : Нет

Аудио #4
Идентификатор : 5
Формат : AC-3
Формат/Информация : Audio Coding 3
Идентификатор кодека : A_AC3
Продолжительность : 1 ч. 31 м.
Вид битрейта : Постоянный
Битрейт : 192 Кбит/сек
Каналы : 2 канала
Расположение каналов : Front: L R
Частота : 48,0 КГц
Частота кадров : 31,250 кадров/сек (1536 SPF)
Битовая глубина : 16 бит
Метод сжатия : С потерями
Размер потока : 126 Мбайт (3%)
Заголовок : DVO | REN-TV
Язык : Russian
По умолчанию : Нет
Принудительно : Нет

Аудио #5
Идентификатор : 6
Формат : AC-3
Формат/Информация : Audio Coding 3
Идентификатор кодека : A_AC3
Продолжительность : 1 ч. 31 м.
Вид битрейта : Постоянный
Битрейт : 192 Кбит/сек
Каналы : 2 канала
Расположение каналов : Front: L R
Частота : 48,0 КГц
Частота кадров : 31,250 кадров/сек (1536 SPF)
Битовая глубина : 16 бит
Метод сжатия : С потерями
Размер потока : 126 Мбайт (3%)
Заголовок : DVO | НТВ
Язык : Russian
По умолчанию : Нет
Принудительно : Нет

Аудио #6
Идентификатор : 7
Формат : AC-3
Формат/Информация : Audio Coding 3
Идентификатор кодека : A_AC3
Продолжительность : 1 ч. 31 м.
Вид битрейта : Постоянный
Битрейт : 384 Кбит/сек
Каналы : 6 каналов
Расположение каналов : Front: L C R, Side: L R, LFE
Частота : 48,0 КГц
Частота кадров : 31,250 кадров/сек (1536 SPF)
Битовая глубина : 16 бит
Метод сжатия : С потерями
Размер потока : 252 Мбайт (5%)
Заголовок : DVO | Так треба продакшн
Язык : Ukrainian
По умолчанию : Нет
Принудительно : Нет

Аудио #7
Идентификатор : 8
Формат : AC-3
Формат/Информация : Audio Coding 3
Идентификатор кодека : A_AC3
Продолжительность : 1 ч. 31 м.
Вид битрейта : Постоянный
Битрейт : 384 Кбит/сек
Каналы : 2 канала
Расположение каналов : Front: L R
Частота : 48,0 КГц
Частота кадров : 31,250 кадров/сек (1536 SPF)
Битовая глубина : 16 бит
Метод сжатия : С потерями
Размер потока : 252 Мбайт (5%)
Заголовок : Original
Язык : English
По умолчанию : Нет
Принудительно : Нет

Текст
Идентификатор : 9
Формат : UTF-8
Идентификатор кодека : S_TEXT/UTF8
Идентификатор кодека/Информация : UTF-8 Plain Text
Заголовок : SDH
Язык : English
По умолчанию : Нет
Принудительно : Нет

Меню
00:00:00.000 : en:Chapter 1
00:09:30.528 : en:Chapter 2
00:18:27.064 : en:Chapter 3
00:29:42.739 : en:Chapter 4
00:40:38.394 : en:Chapter 5
00:51:08.023 : en:Chapter 6
01:01:05.620 : en:Chapter 7
01:10:24.178 : en:Chapter 8
01:19:49.743 : en:Chapter 9
01:25:09.122 : en:Chapter 10
Аватара пользователя
mzma
Главный Модератор-Корсар
 
 

Награды: 76
За помощь проекту (3) Лучший по количеству кубков (6) За отличные раздачи и качество (43) За подробное оформление раздач (10) Верный Сид (12)
Раздачи группы KORSAR разрешено перезаливать спустя сутки после публикации
  • Торрент
Для скачивания торрента необходимо зарегистрироваться или войти на трекер.

Сообщение dimas » 11 окт 2018, 18:49

:good: :senks2: :senks2: :senks2:
Аватара пользователя
dimas
Опытный Корсар
 
 



Вернуться в Зарубежное кино (1991-2000 / HD Video)



Uptime по данным Ping-Admin.Ru - сервиса мониторинга доступности сайтов
Рейтинг@Mail.ru Голосуйте за наш сайт в каталоге Rubo.Ru
cron