logo
Международный русскоязычный
торрент-трекер
Menu

Doublon
Поделиться с друзьями: 
Голосуй за Корсар и получи 400 дублонов
Рейтинг торрент трекеров - UpTracker.ru

Бинго Бонго / Bingo Bongo (1982, комедия, BDRip-AVC)

Сообщение kisa1980 » 10 окт 2018, 22:30

Название: Бинго Бонго
Оригинальное название: Bingo Bongo
Год выхода: 1982
Жанр: Комедия
Страна: Италия, Германия (ФРГ)
Студия: Intercapital
Продолжительность: 01:46:22
Перевод: Профессиональный многоголосый, профессиональный двухголосый, авторский
Режиссер: Паскуале Феста Кампаниле
В ролях: Адриано Челентано, Кароль Буке, Феличе Андреази, Энцо Робутти, Вальтер Д’Аморе, Роберто Марелли, Альфио Патане, Элизабет Коббен, Маурицио Табани, Марио Барилла

О фильме: Человек-обезьяна, найденный где-то в джунглях Конго, перевезен в Милан и назван Бинго-Бонго. Одна лишь Лаура, женщина-антрополог, верит в человеческие качества этого необузданного полуживотного, и их привязанность друг к другу даже перерастает в любовь.



Качество: BDRip-AVC
Видео: MPEG-4 AVC, 3499 Кбит/с, 960x576, 23.976 Кадр/с
Аудио 1: AC3, 2 ch, 192 Кбит/с | Профессиональный многоголосный {РТР, студия Нота)
Аудио 2: AC3, 2 ch, 192 Кбит/с | Профессиональный двухголосый
Аудио 3: AC3, 2 ch, 192 Кбит/с | Авторский (Николай Живаго)
Аудио 4: AC3, 2 ch, 192 Кбит/с | Итальянский
Субтитры: Русские (forced, на песни), русские (полные)


Общее
Уникальный идентификатор : 301421168313931769052716357014172003093 (0xE2C39AFB05BF5633580A0C6C9C04EB15)
Полное имя : Bingo.Bongo.1982.BDRip.AVC.mkv
Формат : Matroska
Версия формата : Version 4 / Version 2
Размер файла : 3,17 Гбайт
Продолжительность : 1 ч. 46 м.
Общий поток : 4270 Кбит/сек
Название фильма : Bingo.Bongo.1982.BDRip.AVC by Koenig
Дата кодирования : UTC 2018-10-10 17:53:34
Программа кодирования : mkvmerge v21.0.0 ('Tardigrades Will Inherit The Earth') 32-bit
Библиотека кодирования : libebml v1.3.5 + libmatroska v1.4.8
Обложка : Yes
Attachments : cover.jpg

Видео
Идентификатор : 1
Формат : AVC
Формат/Информация : Advanced Video Codec
Профиль формата : High@L4.1
Параметр CABAC формата : Да
Параметр ReFrames формата : 12 кадров
Идентификатор кодека : V_MPEG4/ISO/AVC
Продолжительность : 1 ч. 46 м.
Битрейт : 3499 Кбит/сек
Ширина : 960 пикселей
Высота : 576 пикселей
Соотношение сторон : 5:3
Режим частоты кадров : Постоянный
Частота кадров : 23,976 (24000/1001) кадра/сек
Цветовое пространство : YUV
Субдискретизация насыщенности : 4:2:0
Битовая глубина : 8 бит
Тип развёртки : Прогрессивная
Бит/(Пиксели*Кадры) : 0.264
Размер потока : 2,60 Гбайт (82%)
Заголовок : Bingo.Bongo.1982.BDRip.AVC
Библиотека кодирования : x264 core 152 r2851 ba24899
Настройки программы : cabac=1 / ref=12 / deblock=1:-3:-3 / analyse=0x3:0x133 / me=umh / subme=10 / psy=1 / psy_rd=0.98:0.10 / mixed_ref=1 / me_range=32 / chroma_me=1 / trellis=2 / 8x8dct=1 / cqm=0 / deadzone=21,11 / fast_pskip=0 / chroma_qp_offset=-3 / threads=3 / lookahead_threads=1 / sliced_threads=0 / nr=0 / decimate=1 / interlaced=0 / bluray_compat=0 / constrained_intra=0 / bframes=14 / b_pyramid=2 / b_adapt=2 / b_bias=0 / direct=3 / weightb=1 / open_gop=0 / weightp=2 / keyint=240 / keyint_min=23 / scenecut=40 / intra_refresh=0 / rc_lookahead=40 / rc=2pass / mbtree=1 / bitrate=3499 / ratetol=1.0 / qcomp=0.60 / qpmin=10 / qpmax=51 / qpstep=4 / cplxblur=20.0 / qblur=0.5 / vbv_maxrate=50000 / vbv_bufsize=62500 / nal_hrd=none / filler=0 / ip_ratio=1.40 / aq=1:1.00
Язык : Italian
Default : Да
Forced : Нет

Аудио #1
Идентификатор : 2
Формат : AC-3
Формат/Информация : Audio Coding 3
Параметр Endianness формата : Big
Идентификатор кодека : A_AC3
Продолжительность : 1 ч. 46 м.
Вид битрейта : Постоянный
Битрейт : 192 Кбит/сек
Каналы : 2 канала
Расположение каналов : Front: L R
Частота : 48,0 КГц
Частота кадров : 31,250 кадров/сек (1536 spf)
Битовая глубина : 16 бит
Метод сжатия : С потерями
Размер потока : 146 Мбайт (4%)
Заголовок : MVO - РТР студия Нота
Язык : Russian
ServiceKind/String : Complete Main
Default : Да
Forced : Нет

Аудио #2
Идентификатор : 3
Формат : AC-3
Формат/Информация : Audio Coding 3
Параметр Endianness формата : Big
Идентификатор кодека : A_AC3
Продолжительность : 1 ч. 46 м.
Вид битрейта : Постоянный
Битрейт : 192 Кбит/сек
Каналы : 2 канала
Расположение каналов : Front: L R
Частота : 48,0 КГц
Частота кадров : 31,250 кадров/сек (1536 spf)
Битовая глубина : 16 бит
Метод сжатия : С потерями
Размер потока : 146 Мбайт (4%)
Заголовок : DVO
Язык : Russian
ServiceKind/String : Complete Main
Default : Нет
Forced : Нет

Аудио #3
Идентификатор : 4
Формат : AC-3
Формат/Информация : Audio Coding 3
Параметр Endianness формата : Big
Идентификатор кодека : A_AC3
Продолжительность : 1 ч. 46 м.
Вид битрейта : Постоянный
Битрейт : 192 Кбит/сек
Каналы : 2 канала
Расположение каналов : Front: L R
Частота : 48,0 КГц
Частота кадров : 31,250 кадров/сек (1536 spf)
Битовая глубина : 16 бит
Метод сжатия : С потерями
Размер потока : 146 Мбайт (4%)
Заголовок : AVO - Николай Живаго
Язык : Russian
ServiceKind/String : Complete Main
Default : Нет
Forced : Нет

Аудио #4
Идентификатор : 5
Формат : AC-3
Формат/Информация : Audio Coding 3
Параметр Endianness формата : Big
Идентификатор кодека : A_AC3
Продолжительность : 1 ч. 46 м.
Вид битрейта : Постоянный
Битрейт : 192 Кбит/сек
Каналы : 2 канала
Расположение каналов : Front: L R
Частота : 48,0 КГц
Частота кадров : 31,250 кадров/сек (1536 spf)
Битовая глубина : 16 бит
Метод сжатия : С потерями
Размер потока : 146 Мбайт (4%)
Заголовок : Original
Язык : Italian
ServiceKind/String : Complete Main
Default : Нет
Forced : Нет

Текст #1
Идентификатор : 6
Формат : UTF-8
Идентификатор кодека : S_TEXT/UTF8
Идентификатор кодека/Информация : UTF-8 Plain Text
Продолжительность : 12 м. 19 с.
Битрейт : 82 бит/сек
ElementCount : 122
Размер потока : 7,45 Кбайт (0%)
Заголовок : Forced songs
Язык : Russian
Default : Да
Forced : Нет

Текст #2
Идентификатор : 7
Формат : UTF-8
Идентификатор кодека : S_TEXT/UTF8
Идентификатор кодека/Информация : UTF-8 Plain Text
Продолжительность : 1 ч. 44 м.
Битрейт : 59 бит/сек
ElementCount : 846
Размер потока : 45,0 Кбайт (0%)
Заголовок : Full
Язык : Russian
Default : Нет
Forced : Нет

Меню
00:00:00.000 : en:Chapter 1
00:09:38.202 : en:Chapter 2
00:13:36.732 : en:Chapter 3
00:19:15.696 : en:Chapter 4
00:25:24.105 : en:Chapter 5
00:31:43.526 : en:Chapter 6
00:41:28.944 : en:Chapter 7
00:50:11.591 : en:Chapter 8
00:53:42.594 : en:Chapter 9
00:57:01.960 : en:Chapter 10
01:00:47.268 : en:Chapter 11
01:04:36.372 : en:Chapter 12
01:14:05.149 : en:Chapter 13
01:24:46.790 : en:Chapter 14
01:34:46.555 : en:Chapter 15
01:44:36.144 : en:Chapter 16
01:46:21.875 : en:Chapter 17
КУБКИ

СТАЖ

МЕДАЛИ
Награды:50

За помощь проекту (7) Лучший по количеству кубков (3) За отличные раздачи и качество (16) За подробное оформление раздач (4) За отличные комментарии (4) Почётный форумчанин (3) Верный Сид (9) За участие в конкурсах/играх (2)

Аватара пользователя
Тортуга
kisa1980
Главный помощник Администратора-Корсар
  • Торрент
Для скачивания торрента необходимо зарегистрироваться или войти на трекер.

Вернуться в Зарубежное кино (1981-1990)



Uptime по данным Ping-Admin.Ru - сервиса мониторинга доступности сайтов
Рейтинг@Mail.ru Голосуйте за наш сайт в каталоге Rubo.Ru