Korsar.tv - Скачать торрент - Билли Бад / Billy Budd (1962, Приключения, военный, BDRip 720p) - KORSAR
logo
Международный русскоязычный
торрент-трекер
Menu

Doublon
Поделиться с друзьями: 
Голосуй за Корсар и получи 150 дублонов
Рейтинг торрент трекеров - UpTracker.ru

Билли Бад / Billy Budd (1962, Приключения, военный, BDRip 720p) - KORSAR

Сообщение mzma » 10 авг 2018, 08:53

Название: Билли Бад
Оригинальное название: Billy Budd
Год выпуска: 1962
Выпущено: Великобритания, Allied Artists Pictures, Anglo Allied
Жанр: Приключения, военный, экранизация
Режиссер: Питер Устинов
В ролях: Теренс Стэмп, Бэрри Кигэн, Виктор Брукс, Ниал МакГиннис, Сирил Лакэм, Джон Мейллон, Роберт Браун, Рэй МакЭнэлли, Томас Хиткот, Ли Монтаг, Рональд Льюис, Дэвид МакКаллум, Джон Невилл, Пол Роджерс, Мелвин Дуглас, Питер Устинов, Роберт Райан

О фильме: По одноимённому роману Германа Мелвилла
1797 год. Билли Бад, молодой моряк, призван служить на британский военный корабль. Билли не склонен к конфликтам. Даже с каптенармусом Клэгертом, лютым врагом всей команды, он старается наладить контакт. Однако Клэгерт в присутствии капитана судна обвиняет Билли в подготовке мятежа. Билли настолько возмущён, что отвечает ударом, который по роковому стечению обстоятельств оказывается смертельным.



Продолжительность: 02:03:04
Перевод: Профессиональный многоголосый
Субтитры: Русские, английские, испанские, французские
Навигация по главам: Есть

Качество: BDRip 720p
Видео: MPEG-4 AVC, 4844 Кбит/сек, 1272x530, 23,976 кадра/сек
Аудио #1: AC3, 2 ch, 192 Кбит/сек | Русский, профессиональный (многоголосый закадровый) студия СВ-Дубль, по заказу ГТРК "Культура"
Аудио #2: AC3, 2 ch, 384 Кбит/сек | Английский, оригинал

Релиз от:


x264 [info]: frame I:1019 Avg QP:15.47 size:117374
x264 [info]: frame P:33740 Avg QP:18.50 size: 53466
x264 [info]: frame B:142270 Avg QP:21.74 size: 17909
-----------------------------------------------------
Общее
Уникальный идентификатор : 235208079360406326973491704379325251495 (0xB0F36DA6648A0D258D8452F12D037FA7)
Полное имя : Билли.Бад.1962.BDRip.720p.KORSAR.mkv
Формат : Matroska
Версия формата : Version 2
Размер файла : 4,66 Гбайт
Продолжительность : 2 ч. 3 м.
Общий поток : 5421 Кбит/сек
Дата кодирования : UTC 2018-08-10 05:23:53
Программа кодирования : mkvmerge v5.8.0 ('No Sleep / Pillow') built on Sep 2 2012 15:37:04
Библиотека кодирования : libebml v1.2.3 + libmatroska v1.3.0

Видео
Идентификатор : 1
Формат : AVC
Формат/Информация : Advanced Video Codec
Профиль формата : High@L4.1
Настройки формата : CABAC / 12 Ref Frames
Параметр CABAC формата : Да
Параметр RefFrames формата : 12 кадров
Идентификатор кодека : V_MPEG4/ISO/AVC
Продолжительность : 2 ч. 3 м.
Битрейт : 4844 Кбит/сек
Ширина : 1272 пикселя
Высота : 530 пикселей
Соотношение сторон : 2,40:1
Режим частоты кадров : Постоянный
Частота кадров : 23,976 (24000/1001) кадра/сек
Цветовое пространство : YUV
Субдискретизация насыщенности : 4:2:0
Битовая глубина : 8 бит
Тип развёртки : Прогрессивная
Бит/(Пиксели*Кадры) : 0.300
Размер потока : 4,07 Гбайт (87%)
Заголовок : RIP | MZMA
Библиотека кодирования : x264 core 152 r2851kMod ba24899
Настройки программы : cabac=1 / ref=12 / deblock=1:-2:-2 / analyse=0x3:0x113 / me=umh / subme=11 / psy=1 / fade_compensate=0.00 / psy_rd=1.00:0.00 / mixed_ref=1 / me_range=48 / chroma_me=1 / trellis=2 / 8x8dct=1 / cqm=0 / deadzone=21,11 / fast_pskip=0 / chroma_qp_offset=-2 / threads=6 / lookahead_threads=1 / sliced_threads=0 / nr=0 / decimate=0 / interlaced=0 / bluray_compat=0 / constrained_intra=0 / bframes=16 / b_pyramid=2 / b_adapt=2 / b_bias=0 / direct=3 / weightb=1 / open_gop=0 / weightp=2 / keyint=250 / keyint_min=23 / scenecut=40 / intra_refresh=0 / rc_lookahead=60 / rc=2pass / mbtree=1 / bitrate=4844 / ratetol=1.0 / qcomp=0.60 / qpmin=0 / qpmax=69 / qpstep=4 / cplxblur=20.0 / qblur=0.5 / vbv_maxrate=50000 / vbv_bufsize=62500 / nal_hrd=none / filler=0 / ip_ratio=1.40 / aq=2:1.00
Язык : English
По умолчанию : Да
Принудительно : Нет
Цветовой диапазон : Limited
Основные цвета : BT.709
Характеристики трансфера : BT.709
Коэффициенты матрицы : BT.709

Аудио #1
Идентификатор : 2
Формат : AC-3
Формат/Информация : Audio Coding 3
Идентификатор кодека : A_AC3
Продолжительность : 2 ч. 3 м.
Вид битрейта : Постоянный
Битрейт : 192 Кбит/сек
Каналы : 2 канала
Расположение каналов : Front: L R
Частота : 48,0 КГц
Частота кадров : 31,250 кадров/сек (1536 SPF)
Битовая глубина : 16 бит
Метод сжатия : С потерями
Размер потока : 169 Мбайт (4%)
Заголовок : MVO | Культура
Язык : Russian
По умолчанию : Да
Принудительно : Нет

Аудио #2
Идентификатор : 3
Формат : AC-3
Формат/Информация : Audio Coding 3
Идентификатор кодека : A_AC3
Продолжительность : 2 ч. 3 м.
Вид битрейта : Постоянный
Битрейт : 384 Кбит/сек
Каналы : 2 канала
Расположение каналов : Front: L R
Частота : 48,0 КГц
Частота кадров : 31,250 кадров/сек (1536 SPF)
Битовая глубина : 16 бит
Метод сжатия : С потерями
Размер потока : 338 Мбайт (7%)
Заголовок : Original
Язык : English
По умолчанию : Нет
Принудительно : Нет

Текст #1
Идентификатор : 4
Формат : UTF-8
Идентификатор кодека : S_TEXT/UTF8
Идентификатор кодека/Информация : UTF-8 Plain Text
Язык : Russian
По умолчанию : Нет
Принудительно : Нет

Текст #2
Идентификатор : 5
Формат : UTF-8
Идентификатор кодека : S_TEXT/UTF8
Идентификатор кодека/Информация : UTF-8 Plain Text
Язык : English
По умолчанию : Нет
Принудительно : Нет

Текст #3
Идентификатор : 6
Формат : UTF-8
Идентификатор кодека : S_TEXT/UTF8
Идентификатор кодека/Информация : UTF-8 Plain Text
Язык : Spanish
По умолчанию : Нет
Принудительно : Нет

Текст #4
Идентификатор : 7
Формат : UTF-8
Идентификатор кодека : S_TEXT/UTF8
Идентификатор кодека/Информация : UTF-8 Plain Text
Язык : French
По умолчанию : Нет
Принудительно : Нет

Меню
00:00:00.019 : en:01. Credits
00:03:00.616 : en:02. Avenger And Rights Of Man
00:06:48.344 : en:03. Billy Conscripted
00:11:16.028 : en:04. The Flogging
00:18:03.151 : en:05. It's Wrong
00:23:14.629 : en:06. Test Of Strength
00:27:28.549 : en:07. He Decides
00:32:17.538 : en:08. Keep Your Hate Alive
00:36:33.210 : en:09. Force Of Order
00:39:32.773 : en:10. Men On Every Spar
00:42:04.624 : en:11. Jenkins Falls
00:46:06.666 : en:12. The Wey It Happened
00:51:04.964 : en:13. Promotion
00:55:54.453 : en:14. I Am What I Am
01:01:29.755 : en:15. Ignorance Or Irony
01:07:58.810 : en:16. Coward's Confession
01:15:30.962 : en:17. Knife Edge
01:20:48.279 : en:18. Claggart's Accusations
01:25:00.865 : en:19. Death Blow
01:27:29.547 : en:20. Dead Man's Crimes
01:30:04.635 : en:21. Court Martial
01:34:43.580 : en:22. Dansker Senses Finality
01:38:35.979 : en:23. Military Justice
01:43:33.943 : en:24. Save Him And Us All
01:47:28.544 : en:25. My Duty And Yours
01:49:43.312 : en:26. Witness Execution
01:53:43.419 : en:27. Stand Back In The Ranks
01:58:07.649 : en:28. God Bless Captain Vere
02:00:23.952 : en:29. Perishable Things

Аватара пользователя
mzma
Главный Модератор-Корсар
 
 

Награды: 69
За помощь проекту (3) Лучший по количеству кубков (6) За отличные раздачи и качество (38) За подробное оформление раздач (10) Верный Сид (10)
Раздачи группы KORSAR разрешено перезаливать спустя сутки после публикации
  • Торрент
Для скачивания торрента необходимо зарегистрироваться или войти на трекер.

Вернуться в Классика зарубежного кино (фильмы до 1980 года / HD Video)



Uptime по данным Ping-Admin.Ru - сервиса мониторинга доступности сайтов
Рейтинг@Mail.ru