Korsar.tv - Скачать торрент - Безумный спецназ / The Men Who Stare at Goats (2009, Комедия, приключения, BDRemux 1080p)
logo
Международный русскоязычный
торрент-трекер
Menu

Doublon
Поделиться с друзьями: 
Голосуй за Корсар и получи 150 дублонов
Рейтинг торрент трекеров - UpTracker.ru

Безумный спецназ / The Men Who Stare at Goats (2009, Комедия, приключения, BDRemux 1080p)

Сообщение Korsarka » 10 авг 2018, 05:43

Название: Безумный спецназ
Оригинальное название: The Men Who Stare at Goats
Год выхода: 2009
Жанр: Комедия, приключения, экранизация
Режиссер: Грант Хеслов
В ролях: Джордж Клуни, Эван МакГрегор, Джефф Бриджес, Кевин Спейси, Роберт Патрик, Стивен Лэнг, Валид Цайтер, Стивен Рут, Гленн Моршауэр, Ник Офферман, Ребекка Мэдер, Джейкоб Браун, Тодд ля Туретт, Брэд Грюнберг



О фильме: Экранизация одноименной книги британского журналиста Джона Ронсона, посвященной людям с паранормальными способностями, состоящим на службе в Армии США. Главный герой, офицер спецподразделения Лин Кэссиди, выполняет сверхсекретное задание, о котором ничего неизвестно даже армии США. Газетный репортер Боб Уилтон следует по пятам за Лином, пытаясь разузнать о его миссии.

Страна: США, Великобритания
Студия: BBC Films, Smoke House, Westgate Film Services, Winchester Capital Partners
Продолжительность: 01:33:45
Перевод(ы):
#1: Дублированный | Лицензия R5
#2: Авторский | Михаил Чадов

Качество: BDRemux 1080p
Видео: MPEG-4 AVC, 1920x1080, 27.8 Mbit/s, 23.976 fps
Звук:
Аудио #01: 48 kHz, AC3, 5.1, 448 Kbps | Дублированный | RUS |
Аудио #02: 48 kHz, DTS-HD MA, 7.1, 5277 Kbps | Авторский | RUS |
Аудио #03: 48 kHz, TrueHD, 5.1, 4851 Kbps | Оригинал | ENG |
Аудио #04: 48 kHz, AC3, 5.1, 640 Kbps | Оригинал | ENG |
Субтитры: Русские (full), английские



General
Unique ID : 333344248287723993778511277252828704498 (0xFAC7C4574584146F4991F606E81FAEF2)
Complete name : D:Video111The.Men.Who.Stare.at.Goats.2009.BDREMUX.1080p.ExKinoRay.mkv
Format : Matroska
Format version : Version 4 / Version 2
File size : 24.5 GiB
Duration : 1 h 33 min
Overall bit rate mode : Variable
Overall bit rate : 37.4 Mb/s
Movie name : The Men Who Stare at Goats 2009 from ExKinoRay
Encoded date : UTC 2018-08-09 23:56:09
Writing application : mkvmerge v23.0.0 ('The Bride Said No') 64-bit
Writing library : libebml v1.3.6 + libmatroska v1.4.9

Video
ID : 1
Format : AVC
Format/Info : Advanced Video Codec
Format profile : High@L4.1
Format settings : CABAC / 2 Ref Frames
Format settings, CABAC : Yes
Format settings, ReFrames : 2 frames
Codec ID : V_MPEG4/ISO/AVC
Duration : 1 h 33 min
Bit rate mode : Variable
Bit rate : 27.8 Mb/s
Width : 1 920 pixels
Height : 1 080 pixels
Display aspect ratio : 16:9
Frame rate mode : Constant
Frame rate : 23.976 (24000/1001) FPS
Color space : YUV
Chroma subsampling : 4:2:0
Bit depth : 8 bits
Scan type : Progressive
Bits/(Pixel*Frame) : 0.558
Stream size : 18.2 GiB (74%)
Language : English
Default : Yes
Forced : No

Audio #1
ID : 2
Format : AC-3
Format/Info : Audio Coding 3
Commercial name : Dolby Digital
Codec ID : A_AC3
Duration : 1 h 33 min
Bit rate mode : Constant
Bit rate : 448 kb/s
Channel(s) : 6 channels
Channel positions : Front: L C R, Side: L R, LFE
Sampling rate : 48.0 kHz
Frame rate : 31.250 FPS (1536 SPF)
Bit depth : 16 bits
Compression mode : Lossy
Stream size : 299 MiB (1%)
Title : Dub [R5]
Language : Russian
Service kind : Complete Main
Default : Yes
Forced : Yes

Audio #2
ID : 3
Format : DTS
Format/Info : Digital Theater Systems
Format profile : MA / Core
Codec ID : A_DTS
Duration : 1 h 33 min
Bit rate mode : Variable / Constant
Bit rate : 5 277 kb/s / 1 509 kb/s
Channel(s) : 8 channels / 6 channels
Channel positions : Front: L C R, Side: L R, Back: L R, LFE / Front: L C R, Side: L R, LFE
Sampling rate : 48.0 kHz
Frame rate : 93.750 FPS (512 SPF)
Bit depth : 24 bits
Compression mode : Lossless / Lossy
Stream size : 3.44 GiB (14%)
Title : AVO [Chadov]
Language : Russian
Default : No
Forced : No

Audio #3
ID : 4
Format : TrueHD
Codec ID : A_TRUEHD
Duration : 1 h 33 min
Bit rate mode : Variable
Bit rate : 3 214 kb/s
Maximum bit rate : 4 851 kb/s
Channel(s) : 6 channels
Channel positions : Front: L C R, Side: L R, LFE
Sampling rate : 48.0 kHz
Frame rate : 1 200.000 FPS (40 SPF)
Compression mode : Lossless
Stream size : 2.10 GiB (9%)
Title : Original
Language : English
Default : No
Forced : No

Audio #4
ID : 5
Format : AC-3
Format/Info : Audio Coding 3
Commercial name : Dolby Digital
Codec ID : A_AC3
Duration : 1 h 33 min
Bit rate mode : Constant
Bit rate : 640 kb/s
Channel(s) : 6 channels
Channel positions : Front: L C R, Side: L R, LFE
Sampling rate : 48.0 kHz
Frame rate : 31.250 FPS (1536 SPF)
Bit depth : 16 bits
Compression mode : Lossy
Stream size : 429 MiB (2%)
Language : English
Service kind : Complete Main
Default : No
Forced : No

Text #1
ID : 6
Format : UTF-8
Codec ID : S_TEXT/UTF8
Codec ID/Info : UTF-8 Plain Text
Duration : 1 h 27 min
Bit rate : 118 b/s
Count of elements : 1213
Stream size : 75.7 KiB (0%)
Title : Full
Language : Russian
Default : No
Forced : No

Text #2
ID : 7
Format : UTF-8
Codec ID : S_TEXT/UTF8
Codec ID/Info : UTF-8 Plain Text
Duration : 1 h 27 min
Bit rate : 68 b/s
Count of elements : 1208
Stream size : 43.5 KiB (0%)
Language : English
Default : No
Forced : No

Menu
00:00:00.000 : en:Memento Mori / Main Titles
00:07:59.687 : en:Jedi Warrior
00:16:00.542 : en:Bill Django & The New Earth Army
00:25:31.488 : en:Dangers of Desert Driving
00:33:25.712 : en:Psychic Weapons
00:42:49.483 : en:The Battle of Ramadi
00:49:50.904 : en:'Nothing Was Ever The Same Again'
00:57:11.511 : en:The Silence of the Goats
01:07:10.818 : en:Psychic Systems International Corp
01:13:02.920 : en:Different Names For a Reality
01:19:08.368 : en:Returned To The Shy
01:28:07.240 : en:End Credits


Релиз от:

Автор релиза:
Аватара пользователя
Korsarka
Уважаемый Релизёр-Корсар
 
 

Награды: 20
Лучший по количеству кубков (3) За отличные раздачи и качество (9) За подробное оформление раздач (1) За отличные комментарии (1) Верный Сид (4)
  • Торрент
Для скачивания торрента необходимо зарегистрироваться или войти на трекер.

Вернуться в Зарубежное кино (2001-2010 / HD Video)



Uptime по данным Ping-Admin.Ru - сервиса мониторинга доступности сайтов
Рейтинг@Mail.ru