logo
Международный русскоязычный
торрент-трекер
Menu

Doublon
Поделиться с друзьями: 
Голосуй за Корсар и получи 400 дублонов
Рейтинг торрент трекеров - UpTracker.ru

Безумная любовь / Crazy Love (1987, Драма, DVDRip-AVC) - KORSAR

Сообщение filbi1976 » 10 июл 2018, 22:42

Безумная любовь / Crazy Love

Страна: Бельгия
Жанр: Драма
Год выпуска: 1987
Продолжительность: 01:26:48
Перевод: Авторский (одноголосый закадровый) С. Кузнецов
Режиссер: Доминик Деруддер / Dominique Deruddere
В ролях: Йоссе де Пау, Джин Бервутс, Гирт Хунэрт, Майкл Пас, Амид Шакир и др.

О фильме: Три ночи из жизни одного человека, вначале - романтичного 12-летнего мальчика, затем - подростка, страдающего от прыщей и неразделенной любви, и, наконец, 33-летнего алкоголика-самоубийцы, которому одна мертвая девушка показалась прекраснее всех живых...

Кодек: х264
Качество: DVDRip-AVC
Видео: MPEG-4 AVC, 670x480@794x480, 23.976 fps, 1516 Кбит/с
Звук: AC3, 2 ch, 192 Кбит/с
Субтитры: английские



Общее
Уникальный идентификатор : 236847337273219307649139209268424973480 (0xB22F234E16AF1720BA1B3E454B4D9CA8)
Полное имя : D:\Безумная любовь_1987-DVDRip-AVC_KORSAR.mkv
Формат : Matroska
Версия формата : Version 2
Размер файла : 1,06 Гбайт
Продолжительность : 1 ч. 26 м.
Общий поток : 1743 Кбит/сек
Название фильма : Безумная любовь_1987-DVDRip-AVC_KORSAR
Дата кодирования : UTC 2018-07-10 19:45:14
Программа кодирования : mkvmerge v5.8.0 ('No Sleep / Pillow') built on Sep 2 2012 15:37:04
Библиотека кодирования : libebml v1.2.3 + libmatroska v1.3.0

Видео
Идентификатор : 1
Формат : AVC
Формат/Информация : Advanced Video Codec
Профиль формата : High@L4.1
Параметр CABAC формата : Да
Параметр RefFrames формата : 14 кадров
Идентификатор кодека : V_MPEG4/ISO/AVC
Продолжительность : 1 ч. 26 м.
Битрейт : 1516 Кбит/сек
Ширина : 670 пикселей
Высота : 480 пикселей
Соотношение сторон : 5:3
Режим частоты кадров : Постоянный
Частота кадров : 23,976 (24000/1001) кадра/сек
Цветовое пространство : YUV
Субдискретизация насыщенности : 4:2:0
Битовая глубина : 8 бит
Тип развёртки : Прогрессивная
Бит/(Пиксели*Кадры) : 0.197
Размер потока : 941 Мбайт (87%)
Библиотека кодирования : x264 core 152 r2851kMod ba24899
Настройки программы : cabac=1 / ref=14 / deblock=1:-2:-1 / analyse=0x3:0x133 / me=umh / subme=10 / psy=1 / fade_compensate=0.00 / psy_rd=1.05:0.10 / mixed_ref=1 / me_range=40 / chroma_me=1 / trellis=2 / 8x8dct=1 / cqm=0 / deadzone=21,11 / fast_pskip=1 / chroma_qp_offset=-3 / threads=12 / lookahead_threads=3 / sliced_threads=0 / nr=0 / decimate=1 / interlaced=0 / bluray_compat=0 / constrained_intra=0 / bframes=10 / b_pyramid=2 / b_adapt=2 / b_bias=0 / direct=1 / weightb=1 / open_gop=0 / weightp=2 / keyint=250 / keyint_min=23 / scenecut=40 / intra_refresh=0 / rc=crf / mbtree=0 / crf=18.0000 / qcomp=0.63 / qpmin=0 / qpmax=39 / qpstep=4 / ip_ratio=1.40 / pb_ratio=1.30 / aq=1:1.00
Язык : English
Default : Да
Forced : Нет
Цветовой диапазон : Limited
Основные цвета : BT.601 NTSC
Характеристики трансфера : BT.601
Коэффициенты матрицы : BT.601

Аудио
Идентификатор : 2
Формат : AC-3
Формат/Информация : Audio Coding 3
Параметр Endianness формата : Big
Идентификатор кодека : A_AC3
Продолжительность : 1 ч. 26 м.
Вид битрейта : Постоянный
Битрейт : 192 Кбит/сек
Каналы : 2 канала
Расположение каналов : Front: L R
Частота : 48,0 КГц
Частота кадров : 31,250 кадров/сек (1536 SPF)
Битовая глубина : 16 бит
Метод сжатия : С потерями
Размер потока : 119 Мбайт (11%)
Заголовок : AVO-Кузнецов
Язык : Russian
ServiceKind/String : Complete Main
Default : Да
Forced : Нет

Текст
Идентификатор : 3
Формат : UTF-8
Идентификатор кодека : S_TEXT/UTF8
Идентификатор кодека/Информация : UTF-8 Plain Text
Язык : English
Default : Нет
Forced : Нет

Меню
00:00:00.000 : en:Chapter 1
00:07:34.801 : en:Chapter 2
00:14:14.101 : en:Chapter 3
00:21:43.435 : en:Chapter 4
00:28:53.102 : en:Chapter 5
00:33:21.703 : en:Chapter 6
00:40:40.604 : en:Chapter 7
00:47:20.671 : en:Chapter 8
00:53:56.804 : en:Chapter 9
01:02:58.304 : en:Chapter 10
01:10:07.704 : en:Chapter 11
01:18:34.771 : en:Chapter 12

КУБКИ

СТАЖ

МЕДАЛИ
Награды:65

За помощь проекту (1) За отличные раздачи и качество (49) Верный Сид (12) За участие в конкурсах/играх (1)

Аватара пользователя
Тортуга
filbi1976
Администратор-Корсар
Раздачи группы KORSAR разрешено перезаливать спустя сутки после публикации
  • Торрент
Для скачивания торрента необходимо зарегистрироваться или войти на трекер.

Сообщение verybigpapa » 11 июл 2018, 11:46

Уважаемый filbi1976, большое спасибо. :hi: :respect:
Улыбайтесь, господа! Улыбайтесь!
КУБКИ

СТАЖ

МЕДАЛИ
Награды:39

За помощь проекту (15) Лучший по количеству кубков (9) За отличные комментарии (5) Верный Сид (10)

Аватара пользователя
СССР
verybigpapa
Заслуженный Корсар-Вип

Сообщение Khargor » 11 июл 2018, 12:58

Спасибо большое :hi:
КУБКИ

СТАЖ

МЕДАЛИ
Награды:2

Верный Сид (2)

Аватара пользователя
СССР
Khargor
Опытный Корсар


Вернуться в Зарубежное кино (1981-1990)



Uptime по данным Ping-Admin.Ru - сервиса мониторинга доступности сайтов
Рейтинг@Mail.ru Голосуйте за наш сайт в каталоге Rubo.Ru