logo
Международный русскоязычный
торрент-трекер
Menu

Doublon
Поделиться с друзьями: 
Голосуй за Корсар и получи 400 дублонов
Рейтинг торрент трекеров - UpTracker.ru

Бешеные деньги (1978, Фильм-спектакль, DVDRip-AVC) - KORSAR

Сообщение filbi1976 » 18 май 2017, 16:53

Название: Бешеные деньги
Год выхода: 1978
Жанр: Фильм-спектакль
Режиссер: Леонид Варпаховский
В ролях: Элина Быстрицкая, Юрий Васильев, Виталий Игаров, Юрий Каюров, Владимир Кенигсон, Ирина Ликсо, Никита Подгорный, Сергей Харченко

О фильме: Рассказ о нравах русского дворянства XIX века удивительным образом перекликается с условиями жизни и нравственными устоями современной нам действительности. Деньгами расплачиваются за чувства, они беспощадны и губительны. Актуальная история про «нищего духом» обладателя крупного капитала, он уверен в своих силах и точно знает, как достигнуть своей цели.


Выпущено: СССР
Продолжительность: 01:11:18 + 01:18:35
Перевод: не требуется

Файл
Кодек: х264
Качество: DVDRip-AVC
Видео: MPEG-4 AVC, 720x576@788x576, 25 fps, 2112 Кбит/с
Звук: AC3, 2 ch, 192 Кбит/с


Общее
Уникальный идентификатор : 185302505673389468596310136697848317666 (0x8B67F6E5D7FD2FC58EF00C53795FC6E2)
Полное имя : R:\МОИ РИПЫ\Бешеные деньги_1978-DVDRip-AVC\Деньги-1.mkv
Формат : Matroska
Версия формата : Version 2
Размер файла : 1,15 Гбайт
Продолжительность : 1 ч. 11 м.
Общий поток : 2309 Кбит/сек
Дата кодирования : UTC 2017-05-18 09:26:10
Программа кодирования : mkvmerge v5.8.0 ('No Sleep / Pillow') built on Sep 2 2012 15:37:04
Библиотека кодирования : libebml v1.2.3 + libmatroska v1.3.0

Видео
Идентификатор : 1
Формат : AVC
Формат/Информация : Advanced Video Codec
Профиль формата : High@L4.1
Параметр CABAC формата : Да
Параметр ReFrames формата : 13 кадров
Идентификатор кодека : V_MPEG4/ISO/AVC
Продолжительность : 1 ч. 11 м.
Битрейт : 2112 Кбит/сек
Ширина : 720 пикселей
Высота : 576 пикселей
Соотношение сторон : 4:3
Режим частоты кадров : Постоянный
Частота кадров : 25,000 кадров/сек
Стандарт вещания : PAL
Цветовое пространство : YUV
Субдискретизация насыщенности : 4:2:0
Битовая глубина : 8 бит
Тип развёртки : Прогрессивная
Бит/(Пиксели*Кадры) : 0.204
Размер потока : 1,03 Гбайт (90%)
Библиотека кодирования : x264 core 148 r2744kMod b97ae06
Настройки программы : cabac=1 / ref=13 / deblock=1:-2:-2 / analyse=0x3:0x133 / me=umh / subme=10 / psy=1 / fade_compensate=0.00 / psy_rd=1.05:0.10 / mixed_ref=1 / me_range=32 / chroma_me=1 / trellis=2 / 8x8dct=1 / cqm=0 / deadzone=21,11 / fast_pskip=0 / chroma_qp_offset=-3 / threads=12 / lookahead_threads=2 / sliced_threads=0 / nr=0 / decimate=0 / interlaced=0 / bluray_compat=0 / constrained_intra=0 / bframes=8 / b_pyramid=2 / b_adapt=2 / b_bias=0 / direct=3 / weightb=1 / open_gop=0 / weightp=2 / keyint=250 / keyint_min=25 / scenecut=40 / intra_refresh=0 / rc=2pass / mbtree=0 / bitrate=2112 / ratetol=1.0 / qcomp=0.63 / qpmin=0 / qpmax=39 / qpstep=4 / cplxblur=20.0 / qblur=0.5 / ip_ratio=1.25 / pb_ratio=1.30 / aq=1:1.00
Язык : English
Default : Да
Forced : Нет
Цветовой диапазон : Limited
Основные цвета : BT.601 PAL
Характеристики трансфера : BT.470 System B, BT.470 System G
Коэффициенты матрицы : BT.601

Аудио
Идентификатор : 2
Формат : AC-3
Формат/Информация : Audio Coding 3
Расширение режима : CM (complete main)
Параметр Endianness формата : Big
Идентификатор кодека : A_AC3
Продолжительность : 1 ч. 11 м.
Вид битрейта : Постоянный
Битрейт : 192 Кбит/сек
Каналы : 2 канала
Расположение каналов : Front: L R
Частота : 48,0 КГц
Частота кадров : 31,250 кадров/сек (1536 spf)
Битовая глубина : 16 бит
Метод сжатия : С потерями
Размер потока : 97,9 Мбайт (8%)
Язык : Russian
Default : Да
Forced : Нет

Аватара пользователя
filbi1976
Администратор-Корсар
 
 

Награды: 63
За помощь проекту (1) За отличные раздачи и качество (47) Верный Сид (12) За участие в конкурсах/играх (1)
Раздачи группы KORSAR разрешено перезаливать спустя сутки после публикации
  • Торрент
Для скачивания торрента необходимо зарегистрироваться или войти на трекер.

Сообщение kwazar312 » 18 май 2017, 17:25

Большое спасибо,уважаемый filbi1976,за хороший спектакль.
Аватара пользователя
kwazar312
Заслуженный Корсар-Вип
 
 

Награды: 63
За помощь проекту (7) Лучший по количеству кубков (16) За отличные комментарии (10) Верный Сид (25) За участие в конкурсах/играх (5)

Сообщение verybigpapa » 18 май 2017, 17:33

Уважаемый filbi1976, большое спасибо. :hi: :respect:
Улыбайтесь, господа! Улыбайтесь!
Аватара пользователя
verybigpapa
Заслуженный Корсар-Вип
 
 

Награды: 37
За помощь проекту (14) Лучший по количеству кубков (9) За отличные комментарии (5) Верный Сид (9)

Сообщение bagrad » 18 май 2017, 23:32

Спасибо большое Сергей за отличный спектакль и выполненную просьбу!!! :hi: :respect:
Какая плеяда актёров! :good: С большим удовольствием посмотрим всей семьёй! :party:
Dum spíro, spéro!
Аватара пользователя
bagrad
Заслуженный Корсар-Вип
 
 

Награды: 19
За помощь проекту (2) Лучший по количеству кубков (9) За отличные комментарии (1) Верный Сид (7)

Сообщение filbi1976 » 30 сен 2018, 19:56

Всем пожалуйста! :hi:
Аватара пользователя
filbi1976
Администратор-Корсар
 
 

Награды: 63
За помощь проекту (1) За отличные раздачи и качество (47) Верный Сид (12) За участие в конкурсах/играх (1)

Сообщение kwazar312 » 30 сен 2018, 20:54

Недавно Элина Быстрицкая отметила свой юбилей! Цифры не произносимые,потому что ей всегда будет 39 лет и не годом больше! Так вот! Этот спектаклья смотрел несколько раз с неизменным восторгом и спрашивал самого себя:
"Неужели кто-то лучше сыграет Лидию? Неужели когда-нибудь сложитсяподобный классический звёздный состав?". Вопросы риторические!
А зачем ворчать, собственно? Александр Николаевич Осторовский будет вечно молодым и современным. Любо дорого в него, как зеркало, смотреться - узнавать, смеяться и тешить себя надеждой, что это кто-то, а не я:"Ах как она или он напоминают мне имярек! Ну просто копия!". Нашу классику ценят во всём мире за безбрежность Forever. Разве Фонвизин иссяк? Салтыков-Щедрин? Не буду продолжать, места не хватит! На этом я свой импровизированный примитивизм закругляю и очень хочу, чтобы молодые Бой-Гёрл втянулись в "наркотик" российской классики! Они обязательно втянутся, когда "жаренный петух" кликнет в темечко!Спасибо огромное за раздачу!
Аватара пользователя
kwazar312
Заслуженный Корсар-Вип
 
 

Награды: 63
За помощь проекту (7) Лучший по количеству кубков (16) За отличные комментарии (10) Верный Сид (25) За участие в конкурсах/играх (5)


Вернуться в Фильмы-спектакли, театральные постановки



Uptime по данным Ping-Admin.Ru - сервиса мониторинга доступности сайтов
Рейтинг@Mail.ru Голосуйте за наш сайт в каталоге Rubo.Ru
cron