logo
Международный русскоязычный
торрент-трекер
Menu
Doublon
Поделиться с друзьями: 
Голосуй за Корсар и получи 400 дублонов
Рейтинг торрент трекеров - UpTracker.ru

Берегите женщин (1981, комедия, музыкальный, HDTVRip-AVC) - KORSAR

Сообщение filbi1976 » 04 окт 2017, 19:52

Берегите женщин
Жанр: Комедия, музыкальный
Год выпуска: 1981
Продолжительность: 02:06:38
Режиссёр: Виктор Макаров, Александр Полынников
В ролях: Андрей Градов, Марина Шиманская, Игорь Скляр, Светлана Пенкина, Галина Венивитинова, Юрий Медведев, Юрий Кузьменко, Елена Тонунц, Елена Козелькова, Анна Назарьева, Альгис Арлаускас, Игорь Ефимов, Юрий Захаренков, Семен Крупник, Гиви Тохадзе

Описание: Молодой журналист-практикант Женя командируется в морской порт для того, чтобы освоить на практике свою профессию и написать репортаж о работе буксиров. По предложению начальника порта Айвазова его "внедряют" в команду одного из буксиров коком. Придя на буксир «Циклон» он узнаёт о том, что весь его экипаж состоит из девушек. Дочки портовых служащих - красивые, умные, талантливые, которым уготовано блестящее будущее - пошли в матросы на буксир, наплевав на все родительские мечты. Чтобы показать строптивицам, как трудна морская служба, родители позаботились, чтобы девушкам досталось самое старое, отслужившее свой век судно, и чтобы кормили их одними макаронами. Но это не остановило упрямиц, которые находят здесь свое счастье...

Кодек: х264
Качество: HDTVRip-AVC
Видео: MPEG-4 AVC, 836x648, 25 fps, ~5375 Кбит/с
Звук: AC3, 2 ch, 192 Кбит/с


  • x264 [info]: frame I:555 Avg QP:17.77 size: 99158
  • x264 [info]: frame P:21097 Avg QP:19.44 size: 55051
  • x264 [info]: frame B:73507 Avg QP:21.58 size: 11185
Общее
Уникальный идентификатор : 174261734883618693460209777965234576714 (0x831996DECF91058DA8D416D77C52DD4A)
Полное имя : D:\Берегите женщин-1 (1).mkv
Формат : Matroska
Версия формата : Version 2
Размер файла : 2,51 Гбайт
Продолжительность : 1 ч. 3 м.
Общий поток : 5675 Кбит/сек
Название фильма : Берегите женщин_1981-HDTVRip-AVC_KORSAR
Дата кодирования : UTC 2017-10-04 17:54:49
Программа кодирования : mkvmerge v5.8.0 ('No Sleep / Pillow') built on Sep 2 2012 15:37:04
Библиотека кодирования : libebml v1.2.3 + libmatroska v1.3.0

Видео
Идентификатор : 1
Формат : AVC
Формат/Информация : Advanced Video Codec
Профиль формата : High@L4.1
Параметр CABAC формата : Да
Параметр RefFrames формата : 13 кадров
Идентификатор кодека : V_MPEG4/ISO/AVC
Продолжительность : 1 ч. 3 м.
Битрейт : 5370 Кбит/сек
Ширина : 836 пикселей
Высота : 648 пикселей
Соотношение сторон : 1,290
Режим частоты кадров : Постоянный
Частота кадров : 25,000 кадров/сек
Цветовое пространство : YUV
Субдискретизация насыщенности : 4:2:0
Битовая глубина : 8 бит
Тип развёртки : Прогрессивная
Бит/(Пиксели*Кадры) : 0.397
Размер потока : 2,38 Гбайт (95%)
Библиотека кодирования : x264 core 148 r2744kMod b97ae06
Настройки программы : cabac=1 / ref=13 / deblock=1:-2:-1 / analyse=0x3:0x113 / me=umh / subme=10 / psy=1 / fade_compensate=0.00 / psy_rd=1.05:0.10 / mixed_ref=1 / me_range=32 / chroma_me=1 / trellis=2 / 8x8dct=1 / cqm=0 / deadzone=21,11 / fast_pskip=1 / chroma_qp_offset=-3 / threads=12 / lookahead_threads=2 / sliced_threads=0 / nr=0 / decimate=1 / interlaced=0 / bluray_compat=0 / constrained_intra=0 / bframes=9 / b_pyramid=2 / b_adapt=2 / b_bias=0 / direct=1 / weightb=1 / open_gop=0 / weightp=2 / keyint=250 / keyint_min=25 / scenecut=40 / intra_refresh=0 / rc=crf / mbtree=0 / crf=17.6000 / qcomp=0.63 / qpmin=0 / qpmax=39 / qpstep=4 / ip_ratio=1.40 / pb_ratio=1.30 / aq=2:0.90
Язык : English
Default : Да
Forced : Нет
Цветовой диапазон : Limited
Основные цвета : BT.709
Характеристики трансфера : BT.709
Коэффициенты матрицы : BT.709

Аудио
Идентификатор : 2
Формат : AC-3
Формат/Информация : Audio Coding 3
Параметр Endianness формата : Big
Идентификатор кодека : A_AC3
Продолжительность : 1 ч. 3 м.
Вид битрейта : Постоянный
Битрейт : 192 Кбит/сек
Каналы : 2 канала
Расположение каналов : Front: L R
Частота : 48,0 КГц
Частота кадров : 31,250 кадров/сек (1536 SPF)
Битовая глубина : 16 бит
Метод сжатия : С потерями
Размер потока : 87,0 Мбайт (3%)
Язык : Russian
ServiceKind/String : Complete Main
Default : Да
Forced : Нет


За изготовление постера спасибо kisa1980
КУБКИ

СТАЖ

МЕДАЛИ
Награды:69

За помощь проекту (1) За отличные раздачи и качество (50) За отличные комментарии (1) Верный Сид (14) За участие в конкурсах/играх (1)

Аватара пользователя
Тортуга
filbi1976
Администратор-Корсар
Раздачи группы KORSAR разрешено перезаливать спустя сутки после публикации
  • Торрент
Для скачивания торрента необходимо зарегистрироваться или войти на трекер.

Сообщение verybigpapa » 04 окт 2017, 21:09

Отличный фильм! :good: Отличная музыка Антонова! :10 balov: Уважаемый filbi1976, большое спасибо. :hi: :respect:
Улыбайтесь, господа! Улыбайтесь!
КУБКИ

СТАЖ

МЕДАЛИ
Награды:40

За помощь проекту (15) Лучший по количеству кубков (9) За отличные комментарии (5) Верный Сид (11)

Аватара пользователя
СССР
verybigpapa
Заслуженный Корсар-Вип

Сообщение bagrad » 05 окт 2017, 02:59

Спасибо большое Сергей! :10 balov: :good:
Dum spíro, spéro!
КУБКИ

СТАЖ

МЕДАЛИ
Награды:19

За помощь проекту (2) Лучший по количеству кубков (9) За отличные комментарии (1) Верный Сид (7)

Аватара пользователя
СССР
bagrad
Заслуженный Корсар-Вип

Сообщение mister.hats » 05 окт 2017, 03:01

Спасибо Серега. :bajan: :-good: :-drinks:

Тот кто не с нами, тот против нас
КУБКИ

СТАЖ

МЕДАЛИ
Награды:59

За помощь проекту (7) Лучший по количеству кубков (15) За отличные раздачи и качество (24) За подробное оформление раздач (2) За отличные комментарии (1) Верный Сид (10)

Аватара пользователя
Тортуга
mister.hats
Заслуженный Корсар-Вип

Сообщение Bars_St » 05 окт 2017, 16:26

Отличный, музыкальный фильм. Большое СПАСИБО!!! :hi: :hi: :hi:
КУБКИ

СТАЖ

МЕДАЛИ
Награды:36

За помощь проекту (11) Лучший по количеству кубков (7) За отличные комментарии (7) Верный Сид (11)

Аватара пользователя
СССР
Bars_St
Заслуженный Корсар-Вип

Сообщение casperG » 06 окт 2017, 14:11

Спасибо большое за хороший фильм !!!
КУБКИ

СТАЖ

МЕДАЛИ
Награды:7

За помощь проекту (4) За отличные комментарии (1) Верный Сид (2)

Аватара пользователя
СССР
casperG
Заслуженный Корсар-Вип

Сообщение filbi1976 » 06 окт 2017, 15:08

Всем пожалуйста! :hi:
КУБКИ

СТАЖ

МЕДАЛИ
Награды:69

За помощь проекту (1) За отличные раздачи и качество (50) За отличные комментарии (1) Верный Сид (14) За участие в конкурсах/играх (1)

Аватара пользователя
Тортуга
filbi1976
Администратор-Корсар

Сообщение al1ksandr » 02 окт 2018, 13:16

Отличный фильм! Замечательный, добрый, веселый, музыкальный и романтический фильм! Интересный сюжет о забавных приключениях журналиста в роли кока, который не умеет готовить, но очень хорошо умеет петь. И троих его друзей, которые позвали главного героя в свой ансамбль. Много прекрасных песен Юрия Антонова, юмора, романтики и любви. Прекрасная комедийная мелодрама с великолепным актерским составом. Спасибо за релиз, filbi 1976!
КУБКИ

СТАЖ

МЕДАЛИ
Награды:47

За помощь проекту (1) Лучший по количеству кубков (14) За отличные комментарии (8) Почётный форумчанин (21) Верный Сид (1) За участие в конкурсах/играх (2)

Аватара пользователя
СССР
al1ksandr
Заслуженный Корсар-Вип

Сообщение filbi1976 » 06 ноя 2018, 03:06

Ребята, может удалим эту раздачу, скачало не меньше 13 человек, но не один не реагирует на запрос сидеров?
Это не уважение к труду релизёра и своим сосайтникам, а значит, вопрос поднимался по поводу вернуть рейтинг обратно, сколько скачал, столько и раздал, а опустился до ратио 0.3, вообще скачать ничего не сможешь. Вы этого хотите, или я так и буду наблюдать на ваше халатное отношение?
ЗЫ
Чем больше делай людям добра, тем хуже, ибо они не ценят этого, а мы ещё идиоты стараемся чтобы Вам начислялись дублоны за каждое действие, осталось ещё сделать за то, что вы просто будете заходить на сайт, за всё останое почти уже сделано.
Мне стыдно за Вас!!!!!!!!!!!!!!!!!!!!!!!!!!!!!!!!!!!!!!!!!
КУБКИ

СТАЖ

МЕДАЛИ
Награды:69

За помощь проекту (1) За отличные раздачи и качество (50) За отличные комментарии (1) Верный Сид (14) За участие в конкурсах/играх (1)

Аватара пользователя
Тортуга
filbi1976
Администратор-Корсар

Сообщение verybigpapa » 06 ноя 2018, 12:46

На раздаче. :hi:
Улыбайтесь, господа! Улыбайтесь!
КУБКИ

СТАЖ

МЕДАЛИ
Награды:40

За помощь проекту (15) Лучший по количеству кубков (9) За отличные комментарии (5) Верный Сид (11)

Аватара пользователя
СССР
verybigpapa
Заслуженный Корсар-Вип

Сообщение krohalevski » 06 ноя 2018, 13:38

verybigpapa спасибо за помощь в скачивании фильма!
КУБКИ

СТАЖ

МЕДАЛИ
Награды:3

Верный Сид (3)

Аватара пользователя
krohalevski
Уважаемый Корсар

Сообщение moroz1959 » 06 ноя 2018, 14:14

Большое спасибо за помощь в скачивании фильма!!!!!
КУБКИ

СТАЖ

МЕДАЛИ


Аватара пользователя
moroz1959
Корсар

Сообщение Бользен » 07 ноя 2018, 10:53

Благодарю :yahoo:. На раздаче.
КУБКИ

СТАЖ

МЕДАЛИ
Награды:5

Лучший по количеству кубков (1) За отличные комментарии (1) Верный Сид (3)

Аватара пользователя
СССР
Бользен
Уважаемый Корсар


Вернуться в Кино времён СССР



Uptime по данным Ping-Admin.Ru - сервиса мониторинга доступности сайтов
Рейтинг@Mail.ru Голосуйте за наш сайт в каталоге Rubo.Ru