logo
Международный русскоязычный
торрент-трекер
Menu

Doublon
Поделиться с друзьями: 
Голосуй за Корсар и получи 150 дублонов
Рейтинг торрент трекеров - UpTracker.ru

Бегущий по лезвию 2049 / Blade Runner 2049 (2017, Фантастика, триллер, BDRemux 1080p) | US Transfer

Сообщение spam » 12 янв 2018, 21:29

Название: Бегущий по лезвию 2049
Оригинальное название: Blade Runner 2049
Год выхода: 2017
Жанр: Фантастика, триллер
Режиссер: Дени Вильнёв
В ролях: Райан Гослинг, Харрисон Форд, Ана де Армас, Сильвия Хукс, Робин Райт, Маккензи Дэвис, Карла Юри, Ленни Джеймс, Дэйв Батиста, Джаред Лето

О фильме:В недалеком будущем мир населен людьми и репликантами, созданными выполнять самую тяжелую работу. Работа офицера полиции Кей — держать репликантов под контролем в условиях нарастающего напряжения. Пока он случайно не становится обладателем секретной информации, которая ставит под угрозу существование всего человечества. Желая найти ключ к разгадке, Кей решает разыскать Рика Декарда, бывшего офицера специального подразделения полиции Лос-Анджелеса, который бесследно исчез много лет назад.



Страна: США, Великобритания, Канада
Студия: 16:14 Entertainment, Alcon Entertainment, Columbia Pictures
Продолжительность: 02:43:47
Перевод: Дублированный, авторский

Кодек: MPEG-4 AVC
Качество: BDRemux 1080p
Видео: 20336 Кбит/с, 1920х1080, 23.976 кадр/с
Аудио 1: Русский DTS-HD MA 7.1, 4222 kbps - Дубляж
Аудио 2: Русский AC3 5.1, 640 kbps - Дубляж
Аудио 3: Русский DTS-HD MA 5.1, 3840 kbps - Авторский (Есарев)
Аудио 4: Русский DTS-HD MA 5.1, 2226 kbps - Авторский (Живов)
Аудио 5: Английский DTS-HD MA 5.1, 3840 kbps - Оригинал
Субтитры: Русские, английские

Общее
Уникальный идентификатор : 179612461068966618449869499331522411139 (0x87201A0A0BA0A4B48A78A9956E793A83)
Полное имя : D:\РЕМУКС!!!!!\Бегущий по лезвию 2049. BDRemux.mkv
Формат : Matroska
Версия формата : Version 4 / Version 2
Размер файла : 40,2 Гбайт
Продолжительность : 2 ч. 43 м.
Режим общего битрейта : Переменный
Общий поток : 35,1 Мбит/сек
Название фильма : Бегущий по лезвию 2049.BDRemux.thx:SPOMOPS
Дата кодирования : UTC 2018-01-28 11:12:30
Программа кодирования : mkvmerge v8.3.0 ('Over the Horizon') 64bit
Библиотека кодирования : libebml v1.3.1 + libmatroska v1.4.2

Видео
Идентификатор : 1
Формат : AVC
Формат/Информация : Advanced Video Codec
Профиль формата : High@L4.1
Настройки формата : CABAC / 2 Ref Frames
Параметр CABAC формата : Да
Параметр RefFrames формата : 2 кадра
Идентификатор кодека : V_MPEG4/ISO/AVC
Продолжительность : 2 ч. 43 м.
Вид битрейта : Переменный
Битрейт : 20,3 Мбит/сек
Ширина : 1920 пикселей
Высота : 1080 пикселей
Соотношение сторон : 16:9
Режим частоты кадров : Постоянный
Частота кадров : 23,976 (24000/1001) кадра/сек
Цветовое пространство : YUV
Субдискретизация насыщенности : 4:2:0
Битовая глубина : 8 бит
Тип развёртки : Прогрессивная
Бит/(Пиксели*Кадры) : 0.409
Размер потока : 23,3 Гбайт (58%)
Заголовок : MPEG-4 AVC / 20336 kbps / 1920x1080 / 23.976 fps
Язык : English
Default : Да
Forced : Нет

Аудио #1
Идентификатор : 2
Формат : DTS
Формат/Информация : Digital Theater Systems
Профиль формата : MA / Core
Идентификатор кодека : A_DTS
Продолжительность : 2 ч. 43 м.
Вид битрейта : Переменный / Постоянный
Битрейт : 4222 Кбит/сек / 1509 Кбит/сек
Каналы : 8 каналов / 6 каналов
Расположение каналов : Front: L C R, Side: L R, Back: L R, LFE / Front: L C R, Side: L R, LFE
Частота : 48,0 КГц
Частота кадров : 93,750 кадра/сек (512 SPF)
Битовая глубина : 24 бит
Метод сжатия : Без потерь / Lossy
Задержка видео : 13 с. 900 мс.
Размер потока : 4,82 Гбайт (12%)
Заголовок : Русский DTS-HD MA - Дубляж
Язык : Russian
Default : Да
Forced : Нет

Аудио #2
Идентификатор : 3
Формат : AC-3
Формат/Информация : Audio Coding 3
Идентификатор кодека : A_AC3
Продолжительность : 2 ч. 43 м.
Вид битрейта : Постоянный
Битрейт : 640 Кбит/сек
Каналы : 6 каналов
Расположение каналов : Front: L C R, Side: L R, LFE
Частота : 48,0 КГц
Частота кадров : 31,250 кадров/сек (1536 SPF)
Битовая глубина : 16 бит
Метод сжатия : С потерями
Размер потока : 749 Мбайт (2%)
Заголовок : Русский ас3 - Дубляж
Язык : Russian
ServiceKind/String : Complete Main
Default : Нет
Forced : Нет

Аудио #3
Идентификатор : 4
Формат : DTS
Формат/Информация : Digital Theater Systems
Профиль формата : MA / Core
Идентификатор кодека : A_DTS
Продолжительность : 2 ч. 43 м.
Вид битрейта : Переменный / Постоянный
Битрейт : 3840 Кбит/сек / 1509 Кбит/сек
Каналы : 6 каналов
Расположение каналов : Front: L C R, Side: L R, LFE
Частота : 48,0 КГц
Частота кадров : 93,750 кадра/сек (512 SPF)
Битовая глубина : 24 бит
Метод сжатия : Без потерь / Lossy
Размер потока : 4,41 Гбайт (11%)
Заголовок : Русский DTS-HD MA - АП (Есарев)
Язык : Russian
Default : Нет
Forced : Нет

Аудио #4
Идентификатор : 5
Формат : DTS
Формат/Информация : Digital Theater Systems
Профиль формата : MA / Core
Идентификатор кодека : A_DTS
Продолжительность : 2 ч. 43 м.
Вид битрейта : Переменный / Постоянный
Битрейт : 2226 Кбит/сек / 1509 Кбит/сек
Каналы : 6 каналов
Расположение каналов : Front: L C R, Side: L R, LFE
Частота : 48,0 КГц
Частота кадров : 93,750 кадра/сек (512 SPF)
Битовая глубина : 16 бит
Метод сжатия : Без потерь / Lossy
Задержка видео : 13 с. 900 мс.
Размер потока : 2,54 Гбайт (6%)
Заголовок : Русский DTS-HD MA - АП (Живов)
Язык : Russian
Default : Нет
Forced : Нет

Аудио #5
Идентификатор : 6
Формат : DTS
Формат/Информация : Digital Theater Systems
Профиль формата : MA / Core
Идентификатор кодека : A_DTS
Продолжительность : 2 ч. 43 м.
Вид битрейта : Переменный / Постоянный
Битрейт : 3840 Кбит/сек / 1509 Кбит/сек
Каналы : 6 каналов
Расположение каналов : Front: L C R, Side: L R, LFE
Частота : 48,0 КГц
Частота кадров : 93,750 кадра/сек (512 SPF)
Битовая глубина : 24 бит
Метод сжатия : Без потерь / Lossy
Размер потока : 4,38 Гбайт (11%)
Заголовок : Английский DTS-HD MA - Оригинал
Язык : English
Default : Нет
Forced : Нет

Текст #1
Идентификатор : 7
Формат : UTF-8
Идентификатор кодека : S_TEXT/UTF8
Идентификатор кодека/Информация : UTF-8 Plain Text
Продолжительность : 2 ч. 42 м.
Битрейт : 2 бит/сек
ElementCount : 55
Размер потока : 2,82 Кбайт (0%)
Заголовок : Русские - Форс.
Язык : Russian
Default : Да
Forced : Нет

Текст #2
Идентификатор : 8
Формат : UTF-8
Идентификатор кодека : S_TEXT/UTF8
Идентификатор кодека/Информация : UTF-8 Plain Text
Продолжительность : 2 ч. 42 м.
Битрейт : 39 бит/сек
ElementCount : 1071
Размер потока : 47,5 Кбайт (0%)
Заголовок : Русские
Язык : Russian
Default : Нет
Forced : Нет

Текст #3
Идентификатор : 9
Формат : UTF-8
Идентификатор кодека : S_TEXT/UTF8
Идентификатор кодека/Информация : UTF-8 Plain Text
Продолжительность : 2 ч. 26 м.
Битрейт : 24 бит/сек
ElementCount : 972
Размер потока : 26,7 Кбайт (0%)
Заголовок : Английские
Язык : English
Default : Нет
Forced : Нет

Меню
00:00:00.000 : en:Chapter 01
00:12:50.269 : en:Chapter 02
00:23:43.380 : en:Chapter 03
00:37:14.857 : en:Chapter 04
00:43:04.248 : en:Chapter 05
00:49:38.600 : en:Chapter 06
00:58:49.609 : en:Chapter 07
01:04:24.485 : en:Chapter 08
01:16:01.014 : en:Chapter 09
01:25:26.412 : en:Chapter 10
01:36:29.158 : en:Chapter 11
01:51:08.953 : en:Chapter 12
02:01:50.761 : en:Chapter 13
02:08:54.476 : en:Chapter 14
02:16:56.583 : en:Chapter 15
02:28:00.913 : en:Chapter 16



Последний раз редактировалось filbi1976 28 янв 2018, 16:27, всего редактировалось 1 раз.
Причина: Поглощённый торрент
Аватара пользователя
spam
Уважаемый Релизёр-Корсар
 
 

Награды: 24
Лучший по количеству кубков (3) За отличные раздачи и качество (16) За подробное оформление раздач (3)
  • Торрент
Для скачивания торрента необходимо зарегистрироваться или войти на трекер.

Вернуться в Зарубежное кино (2011-2018 / HD Video)



Uptime по данным Ping-Admin.Ru - сервиса мониторинга доступности сайтов
Рейтинг@Mail.ru