logo
Международный русскоязычный
торрент-трекер
Menu
Поделиться с друзьями: 
Голосуй за Корсар и получи 500 дублонов
Рейтинг торрент трекеров - UpTracker.ru

BBC: Семь миров, одна планета / Seven Worlds, One Planet / Серии: 01-07 из 07 (2019, документальный, природа, флора, фауна, UHD BDRemux 2160p)

Сообщение kisa1980 » 12 янв 2020, 15:34

Название: Семь миров, одна планета
Оригинальное название: Seven Worlds, One Planet
Год выхода: 2019
Жанр: Документальный, природа, флора, фауна
Режиссер: Джилз Баджер, Чадден Хантер, Эмма Нэппер
В ролях: Дэвид Аттенборо

О фильме: Миллионы лет назад невероятные силы разорвали земную кору, создав наши семь континентов - каждый со своим особенным климатом, своей особой местностью и своей уникальной животной жизнью. «Семь миров» - от красочного рая Южной Америки до палящей жары Африки - демонстрирует истинный характер каждого континента, в свою очередь, и показывает, как он сформировал всю жизнь там. Удивляйтесь неожиданным историям. Полюбуйтесь знаковыми пейзажами. А так же, будьте пораженными захватывающей дикой природой.



Страна: Великобритания, Китай, США, Германия, Франция
Студия: BBC Studios, BBC Natural History Unit (NHU)
Продолжительность: 7х ~ 00:52:00
Перевод: Профессиональный (одноголосый, закадровый)

Качество: UHD BDRemux 2160p
Видео: HEVC/H.265, 3840x2160, (16:9), 59.3 Mbps, 23.976 fps
Аудио 1: DTS-HD MA, 8 ch, 5237 - Русский (Семён Ващенко)
Аудио 2: TrueHD+Atmos, 8 ch, 4529 Kbps - Английский
Аудио 3: AC3, 6 ch, 640 Kbps - Английский
Субтитры: Русские, английские (SDH)

Релиз от:

Episode 1: Антарктика
Episode 2: Азия.
Episode 3: Южная Америка.
Episode 4: Австралия.
Episode 5: Европа.
Episode 6: Северная Америка.
Episode 7: Африка.
General
Unique ID : 177317217829546275533299944533133485896 (0x85660DCF7E1ABA837DC0669F48D1E748)
Complete name : F:Seven.Worlds.One.Planet.S01.2019.2160p.HDR.BDRemuxSeven.Worlds.One.Planet.S01E04.2019.2160p.HDR.BDRemux.mkv
Format : Matroska
Format version : Version 4
File size : 25.6 GiB
Duration : 52 min 34 s
Overall bit rate mode : Variable
Overall bit rate : 69.8 Mb/s
Encoded date : UTC 2020-01-07 12:39:53
Writing application : mkvmerge v38.0.0 ('The Silent Type') 64-bit
Writing library : libebml v1.3.9 + libmatroska v1.5.2
Cover : Yes
Attachments : cover.jpg

Video
ID : 1
Format : HEVC
Format/Info : High Efficiency Video Coding
Format profile : Main 10@L5.1@High
HDR format : SMPTE ST 2086, HDR10 compatible
Codec ID : V_MPEGH/ISO/HEVC
Duration : 52 min 34 s
Bit rate : 59.3 Mb/s
Width : 3 840 pixels
Height : 2 160 pixels
Display aspect ratio : 16:9
Frame rate mode : Constant
Frame rate : 23.976 (24000/1001) FPS
Color space : YUV
Chroma subsampling : 4:2:0 (Type 2)
Bit depth : 10 bits
Bits/(Pixel*Frame) : 0.298
Stream size : 21.8 GiB (85%)
Title : BDRemux.2160p.HDR by Silverok
Default : Yes
Forced : No
Color range : Limited
Color primaries : BT.2020
Transfer characteristics : PQ
Matrix coefficients : BT.2020 non-constant
Mastering display color pri : Display P3
Mastering display luminance : min: 0.0050 cd/m2, max: 1000 cd/m2
Maximum Content Light Level : 996 cd/m2
Maximum Frame-Average Light : 524 cd/m2

Audio #1
ID : 2
Format : DTS XLL
Format/Info : Digital Theater Systems
Commercial name : DTS-HD Master Audio
Codec ID : A_DTS
Duration : 52 min 34 s
Bit rate mode : Variable
Bit rate : 5 237 kb/s
Channel(s) : 8 channels
Channel layout : C L R LFE Lb Rb Lss Rss
Sampling rate : 48.0 kHz
Frame rate : 93.750 FPS (512 SPF)
Bit depth : 24 bits
Compression mode : Lossless
Stream size : 1.92 GiB (8%)
Title : Одноголосый закадровый, Семён Ващенко
Language : Russian
Default : Yes
Forced : No

Audio #2
ID : 3
Format : MLP FBA 16-ch
Format/Info : Meridian Lossless Packing FBA with 16-channel presentation
Commercial name : Dolby TrueHD with Dolby Atmos
Codec ID : A_TRUEHD
Duration : 52 min 34 s
Bit rate mode : Variable
Bit rate : 4 529 kb/s
Maximum bit rate : 6 645 kb/s
Channel(s) : 8 channels
Channel layout : L R C LFE Ls Rs Lb Rb
Sampling rate : 48.0 kHz
Frame rate : 1 200.000 FPS (40 SPF)
Compression mode : Lossless
Stream size : 1.66 GiB (6%)
Language : English
Default : No
Forced : No
Number of dynamic objects : 11
Bed channel count : 1 channel
Bed channel configuration : LFE

Audio #3
ID : 4
Format : AC-3
Format/Info : Audio Coding 3
Commercial name : Dolby Digital
Codec ID : A_AC3
Duration : 52 min 34 s
Bit rate mode : Constant
Bit rate : 640 kb/s
Channel(s) : 6 channels
Channel layout : L R C LFE Ls Rs
Sampling rate : 48.0 kHz
Frame rate : 31.250 FPS (1536 SPF)
Compression mode : Lossy
Stream size : 241 MiB (1%)
Language : English
Service kind : Complete Main
Default : No
Forced : No

Text #1
ID : 5
Format : UTF-8
Codec ID : S_TEXT/UTF8
Codec ID/Info : UTF-8 Plain Text
Duration : 50 min 43 s
Bit rate : 71 b/s
Count of elements : 371
Stream size : 26.6 KiB (0%)
Title : Full
Language : Russian
Default : No
Forced : No

Text #2
ID : 6
Format : UTF-8
Codec ID : S_TEXT/UTF8
Codec ID/Info : UTF-8 Plain Text
Duration : 51 min 14 s
Bit rate : 41 b/s
Count of elements : 389
Stream size : 15.7 KiB (0%)
Title : SDH
Language : English
Default : No
Forced : No

Menu
00:00:00.000 : en:Глава 01
00:12:01.888 : en:Глава 02
00:21:53.103 : en:Глава 03
00:29:46.618 : en:Глава 04
00:39:38.626 : en:Глава 05
КУБКИ

СТАЖ

МЕДАЛИ
Награды:115

За активную помощь проекту (12) Лучший по количеству кубков (4) За отличные раздачи и качество (43) За подробное оформление раздач (10) За отличные комментарии (10) Почётный форумчанин (3) Верный Сид (30) За участие в конкурсах/играх (2)

Аватара пользователя
Тортуга
kisa1980
Главный помощник Администратора-Корсар
  • Торрент
Для скачивания торрента необходимо зарегистрироваться или войти на трекер.

Сообщение filbi1976 » 12 янв 2020, 15:42

Класс! :10 balov: :-drinks:
The Show Must Go On
Посмотреть товар в профиле пользователя

Нажмите на изображение, чтобы увидеть в полный размер  
1 шт.
Нажмите на изображение, чтобы увидеть в полный размер  
1 шт.
Нажмите на изображение, чтобы увидеть в полный размер  
1 шт.
Нажмите на изображение, чтобы увидеть в полный размер  
1 шт.
Нажмите на изображение, чтобы увидеть в полный размер  
1 шт.
Нажмите на изображение, чтобы увидеть в полный размер  
1 шт.
Нажмите на изображение, чтобы увидеть в полный размер  
1 шт.
Нажмите на изображение, чтобы увидеть в полный размер  
1 шт.
Нажмите на изображение, чтобы увидеть в полный размер  
1 шт.
Нажмите на изображение, чтобы увидеть в полный размер  
1 шт.
Нажмите на изображение, чтобы увидеть в полный размер  
1 шт.
Нажмите на изображение, чтобы увидеть в полный размер  
1 шт.
Нажмите на изображение, чтобы увидеть в полный размер  
1 шт.
Нажмите на изображение, чтобы увидеть в полный размер  
1 шт.
Нажмите на изображение, чтобы увидеть в полный размер  
1 шт.
КУБКИ

СТАЖ

МЕДАЛИ
Награды:164

За активную помощь проекту (5) Лучший по количеству кубков (1) За отличные раздачи и качество (108) За подробное оформление раздач (4) За отличные комментарии (7) Почётный форумчанин (2) Верный Сид (33) За участие в конкурсах/играх (2) 3 место в конкурсах/играх (1)

Аватара пользователя
Тортуга
filbi1976
Администратор-Корсар


Вернуться в Документальные (4К)



Uptime по данным Ping-Admin.Ru - сервиса мониторинга доступности сайтов
Рейтинг@Mail.ru