logo
Международный русскоязычный
торрент-трекер
Menu
Doublon
Поделиться с друзьями: 
Голосуй за Корсар и получи 500 дублонов
Рейтинг торрент трекеров - UpTracker.ru

Бар «Гадкий койот» / Coyote Ugly (2000, драма, мелодрама, комедия, музыка, WEB-DLRip) | Theatrical Cut | Open Matte

Сообщение grab777 » 14 янв 2020, 18:38

Название: Бар «Гадкий койот»
Оригинальное название: Coyote Ugly
Год выхода: 2000
Жанр: драма, мелодрама, комедия, музыка
Режиссер: Дэвид МакНэлли
В ролях: Пайпер Перабо, Адам Гарсия, Джон Гудман, Мария Белло, Изабелла Мико, Тайра Бэнкс, Бриджет Мойнэхэн, Мелани Лински, Дель Пентекост, Майкл Уэстон

О фильме: Вайолет всю жизнь прожила на окраине и мечтала стать певицей. Но ее никогда не покидал страх перед освещенной сценой и шумной толпой. Наконец, мечта привела ее в Нью-Йорк, где Вайолет устроилась на работу официанткой в знаменитый бар «Гадкий Койот», где правят бал только красивые и решительные. В обществе неотразимых красавиц, чьи манеры пугают ханжей и привлекают мужчин, Вайолет должна преодолеть природную застенчивость и услышать собственный голос.



Страна: США
Студия: Jerry Bruckheimer Films, Touchstone Pictures
Продолжительность: 01:40:56
Перевод: Дублированный | R5

Формат: AVI
Качество: WEB-DLRip
Видео: XviD, 720x400 (16:9), 23.976 fps, 1 478 kb/s (0.214 bit/pixel)
Аудио #1: AC-3, 48.0 kHz, 2 ch, 192 kb/s, CBR | | Дубляж
Аудио #2: AC-3, 48.0 kHz, 6 ch, 384 kb/s, CBR | | English (Оригинал)
Субтитры: Russian, English

General
Complete name : Coyote Ugly.2000.Open.Matte.RUS.ENG.WEB-DLRip.Deadmauvlad.1.46.GB.avi
Format : AVI
Format/Info : Audio Video Interleave
File size : 1.46 GiB
Duration : 1 h 40 min
Overall bit rate : 2 068 kb/s
Movie name : Coyote Ugly.2000.Open.Matte.RUS.ENG.WEB-DLRip.Deadmauvlad.1.46.GB
Director : Encoder by Deadmauvlad
Genre : драма, мелодрама, комедия
Writing application : VirtualDubMod 1.5.10.3 | http://www.virtualdub-fr.org || (build 2550/release)
Original source form/Name : Фильм
Copyright : Encoder by Deadmauvlad
Comment : Encoder by Deadmauvlad

Video
ID : 0
Format : MPEG-4 Visual
Format profile : Advanced Simple@L5
Format settings : BVOP1 / Custom Matrix
Format settings, BVOP : 1
Format settings, QPel : No
Format settings, GMC : No warppoints
Format settings, Matrix : Custom
Codec ID : XVID
Codec ID/Hint : XviD
Duration : 1 h 40 min
Bit rate : 1 478 kb/s
Width : 720 pixels
Height : 400 pixels
Display aspect ratio : 16:9
Frame rate : 23.976 (24000/1001) FPS
Color space : YUV
Chroma subsampling : 4:2:0
Bit depth : 8 bits
Scan type : Progressive
Compression mode : Lossy
Bits/(Pixel*Frame) : 0.214
Stream size : 1.04 GiB (71%)
Writing library : XviD 73

Audio #1
ID : 1
Format : AC-3
Format/Info : Audio Coding 3
Commercial name : Dolby Digital
Codec ID : 2000
Duration : 1 h 40 min
Bit rate mode : Constant
Bit rate : 192 kb/s
Channel(s) : 2 channels
Channel layout : L R
Sampling rate : 48.0 kHz
Frame rate : 31.250 FPS (1536 SPF)
Bit depth : 16 bits
Compression mode : Lossy
Stream size : 139 MiB (9%)
Alignment : Split accross interleaves
Interleave, duration : 42 ms (1.00 video frame)
Interleave, preload duration : 500 ms
Audio #2
ID : 2
Format : AC-3
Format/Info : Audio Coding 3
Commercial name : Dolby Digital
Codec ID : 2000
Duration : 1 h 40 min
Bit rate mode : Constant
Bit rate : 384 kb/s
Channel(s) : 6 channels
Channel layout : L R C LFE Ls Rs
Sampling rate : 48.0 kHz
Frame rate : 31.250 FPS (1536 SPF)
Bit depth : 16 bits
Compression mode : Lossy
Stream size : 277 MiB (19%)
Alignment : Split accross interleaves
Interleave, duration : 42 ms (1.00 video frame)
Interleave, preload duration : 500 ms


Автор рипа: Deadmauvlad
КУБКИ

СТАЖ

МЕДАЛИ
Награды:5

За отличные раздачи и качество (1) Почётный форумчанин (1)

Аватара пользователя
Ukraine
grab777
Уважаемый Релизёр-Корсар
  • Торрент
Для скачивания торрента необходимо зарегистрироваться или войти на трекер.

Вернуться в Зарубежное кино (1991-2000)



Uptime по данным Ping-Admin.Ru - сервиса мониторинга доступности сайтов
Рейтинг@Mail.ru