logo
Международный русскоязычный
торрент-трекер
Menu
Doublon
Поделиться с друзьями: 
Голосуй за Корсар и получи 500 дублонов
Рейтинг торрент трекеров - UpTracker.ru

Банда с улицы Блекинге / Blekingegade / Сезон: 1 / Серии: 1-5 из 5 (2009, Дания, криминал, DVDRip-AVC)

Сообщение Korsar » 04 дек 2016, 19:18

Банда с улицы Блекинге / Blekingegade

Год выпуска: 2009
Страна: Дания
Жанр: криминал
Продолжительность: 45 мин.

Перевод: Профессиональный (многоголосый закадровый) /Русский репортаж/

Запись звука: teftel, HPotter
Сведение: Beer kolesik Drinkers
Рип: HPotter


Режиссёр: Якоб Тюсен

В ролях: Ульрих Томсен, Туре Линдхардт, Николай Костер-Вальдау, Давид Денсик.

Описание: Основано на реальных событиях.

В 1970-е – 1980-е годы в Дании орудовала банда, получившая печальную известность по всей стране.
Преступная группировка, название которой было дано по адресу квартиры, где находилось засекреченное место сбора группы, состояла из леворадикальных активистов и поддерживала, в частности, такие организации, как Народный Фронт Освобождения Палестины. Семь членов банды в 1989 году были обвинены в причастности к серии самых дерзких грабежей в истории Дании. Инспектор полиции Йорн Мусс приложил немало усилий, чтобы поймать банду.

Доп. информация: Сохранены оригинальные чаптеры как на DVD.

Сэмпл: http://www.sendspace.com/file/dhn3uf

Качество: DVDRip-AVC
Формат: MKV
Видео кодек: x264
Аудио кодек: AC3
Видео: 720x460, 25.000 fps, 2558 kbps, 0.309 bit/pixel
Аудио Rus: 48 kHz, AC3, 2 ch, 192 kbps
Аудио Dan: 48 kHz, AC3, 6 ch, 448 kbps
General
Unique ID : 208866561725350168749182755853479952050 (0x9D223C8F3FBBEAE09955C97F3DDFBEB2)
Complete name : D:\Blekingegade\Blekingegade.Afsnit.1.1983.til.1985.DVDRip-AVC.x264.Rus.Dan.mkv
Format : Matroska
Format version : Version 4 / Version 2
File size : 1.04 GiB
Duration : 46mn 28s
Overall bit rate : 3 200 Kbps
Encoded date : UTC 2014-03-21 17:18:35
Writing application : mkvmerge v6.0.0 ('Coming Up For Air') built on Jan 20 2013 09:52:00
Writing library : libebml v1.3.0 + libmatroska v1.4.0

Video
ID : 1
Format : AVC
Format/Info : Advanced Video Codec
Format profile : High@L4.1
Format settings, CABAC : Yes
Format settings, ReFrames : 16 frames
Codec ID : V_MPEG4/ISO/AVC
Duration : 46mn 28s
Bit rate : 2 558 Kbps
Width : 720 pixels
Height : 460 pixels
Display aspect ratio : 2.25:1
Original display aspect ratio : 2.25:1
Frame rate mode : Constant
Frame rate : 25.000 fps
Color space : YUV
Chroma subsampling : 4:2:0
Bit depth : 8 bits
Scan type : Progressive
Bits/(Pixel*Frame) : 0.309
Stream size : 830 MiB (78%)
Title : Blekingegade. Afsnit 1 "1983 til 1985" DK
Writing library : x264 core 140 r2377 1ca7bb9
Encoding settings : cabac=1 / ref=16 / deblock=1:-3:-3 / analyse=0x3:0x133 / me=umh / subme=10 / psy=1 / psy_rd=1.00:0.15 / mixed_ref=1 / me_range=32 / chroma_me=1 / trellis=2 / 8x8dct=1 / cqm=0 / deadzone=21,11 / fast_pskip=0 / chroma_qp_offset=-3 / threads=12 / lookahead_threads=1 / sliced_threads=0 / nr=0 / decimate=1 / interlaced=0 / bluray_compat=0 / constrained_intra=0 / bframes=6 / b_pyramid=2 / b_adapt=2 / b_bias=0 / direct=3 / weightb=1 / open_gop=0 / weightp=2 / keyint=250 / keyint_min=25 / scenecut=40 / intra_refresh=0 / rc_lookahead=60 / rc=2pass / mbtree=1 / bitrate=2558 / ratetol=1.0 / qcomp=0.60 / qpmin=10 / qpmax=51 / qpstep=4 / cplxblur=20.0 / qblur=0.5 / vbv_maxrate=62500 / vbv_bufsize=50000 / nal_hrd=none / filler=0 / ip_ratio=1.40 / aq=1:1.00
Language : Danish
Default : Yes
Forced : No

Audio #1
ID : 2
Format : AC-3
Format/Info : Audio Coding 3
Mode extension : CM (complete main)
Format settings, Endianness : Big
Codec ID : A_AC3
Duration : 46mn 28s
Bit rate mode : Constant
Bit rate : 192 Kbps
Channel(s) : 2 channels
Channel positions : Front: L R
Sampling rate : 48.0 KHz
Bit depth : 16 bits
Compression mode : Lossy
Stream size : 63.8 MiB (6%)
Language : Russian
Default : Yes
Forced : No

Audio #2
ID : 3
Format : AC-3
Format/Info : Audio Coding 3
Mode extension : CM (complete main)
Format settings, Endianness : Big
Codec ID : A_AC3
Duration : 46mn 28s
Bit rate mode : Constant
Bit rate : 448 Kbps
Channel(s) : 6 channels
Channel positions : Front: L C R, Side: L R, LFE
Sampling rate : 48.0 KHz
Bit depth : 16 bits
Compression mode : Lossy
Stream size : 149 MiB (14%)
Title : AC3 5.1 @ 448 kbps
Language : Danish
Default : No
Forced : No

Menu
00:00:00.000 : en:Chapter 01
00:08:27.520 : en:Chapter 02
00:16:35.800 : en:Chapter 03
00:29:11.360 : en:Chapter 04
00:36:47.400 : en:Chapter 05
00:46:27.200 : en:Chapter 06
КУБКИ

СТАЖ

МЕДАЛИ
Награды:8

Лучший по количеству кубков (1) За отличные раздачи и качество (2) За отличные комментарии (2) Почётный форумчанин (1) Верный Сид (2)

Аватара пользователя
СССР
Korsar
Заслуженный Корсар-Вип+
  • Торрент
Для скачивания торрента необходимо зарегистрироваться или войти на трекер.

Вернуться в Зарубежные сериалы



Uptime по данным Ping-Admin.Ru - сервиса мониторинга доступности сайтов
Рейтинг@Mail.ru