logo
Международный русскоязычный
торрент-трекер
Menu

Doublon
Поделиться с друзьями: 
Голосуй за Корсар и получи 150 дублонов
Рейтинг торрент трекеров - UpTracker.ru

Авторитет / Juice (1992, триллер, драма, криминал, BDRip 720p)

Сообщение kisa1980 » 24 май 2018, 21:59

Название: Авторитет
Оригинальное название: Juice
Год выхода: 1992
Жанр: Триллер, драма, криминал
Страна: США, Великобритания
Студия: Island World
Продолжительность: 01:34:41
Перевод: Авторский одноголосый, профессиональный двухголосый
Режиссер: Эрнест Р. Дикерсон
В ролях: Омар Эппс, Тупак Шакур, Жермен Хагги Хопкинс, Халил Кейн, Синди Херрон, Винсент Лареска, Сэмюэл Л. Джексон, Джордж Гор II, Грэйс Гарлэнд, Куин Латифа

О фильме: Фильм рассказывает о тяжелой жизни черных людей в Гарлеме. Четверо подростков ведут преступную жизнь и все казалось бы «хорошо», но их жизнь меняется после неудачного ограбления магазина.



Качество: BDRip 720p
Видео: 1280x720 (16:9), 23.976 fps, x264 ~5 551 kbps, 0.251 bit/pixel
Аудио 1: Dolby AC3 48000Hz 6ch 448kbps - AVO, Д. Есарев
Аудио 2: Dolby AC3 48000Hz 2ch 384kbps - DVO, НТВ+
Аудио 3: Dolby AC3 48000Hz 6ch 448kbps - Оригинал
Субтитры: Английские
Навигация по главам: Есть

General
Unique ID : 2681798695249738638352428404117578817 (0x2047EE2577896D596F3E05411A7A441)
Complete name : Авторитет - Juice (1992) BDRip 720p.mkv
Format : Matroska
Format version : Version 4 / Version 2
File size : 4.52 GiB
Duration : 1 h 34 min
Overall bit rate : 6 830 kb/s
Movie name : Juice (1992)
Encoded date : UTC 2018-05-24 17:23:54
Writing application : mkvmerge v23.0.0 ('The Bride Said No') 64-bit
Writing library : libebml v1.3.6 + libmatroska v1.4.9

Video
ID : 1
Format : AVC
Format/Info : Advanced Video Codec
Format profile : High@L4.1
Format settings, CABAC : Yes
Format settings, RefFrames : 9 frames
Codec ID : V_MPEG4/ISO/AVC
Duration : 1 h 34 min
Bit rate : 5 551 kb/s
Width : 1 280 pixels
Height : 720 pixels
Display aspect ratio : 16:9
Frame rate mode : Constant
Frame rate : 23.976 (24000/1001) FPS
Color space : YUV
Chroma subsampling : 4:2:0
Bit depth : 8 bits
Scan type : Progressive
Bits/(Pixel*Frame) : 0.251
Stream size : 3.67 GiB (81%)
Writing library : x264 core 155 r2901 7d0ff22
Encoding settings : cabac=1 / ref=9 / deblock=1:-3:-3 / analyse=0x3:0x113 / me=umh / subme=11 / psy=1 / psy_rd=1.00:0.00 / mixed_ref=1 / me_range=32 / chroma_me=1 / trellis=2 / 8x8dct=1 / cqm=0 / deadzone=21,11 / fast_pskip=1 / chroma_qp_offset=-4 / threads=6 / lookahead_threads=1 / sliced_threads=0 / nr=0 / decimate=1 / interlaced=0 / bluray_compat=0 / constrained_intra=0 / bframes=8 / b_pyramid=2 / b_adapt=2 / b_bias=0 / direct=1 / weightb=1 / open_gop=0 / weightp=2 / keyint=240 / keyint_min=23 / scenecut=40 / intra_refresh=0 / rc_lookahead=40 / rc=2pass / mbtree=1 / bitrate=5551 / ratetol=1.0 / qcomp=0.60 / qpmin=10 / qpmax=69 / qpstep=4 / cplxblur=20.0 / qblur=0.5 / vbv_maxrate=50000 / vbv_bufsize=62500 / nal_hrd=none / filler=0 / ip_ratio=1.40 / aq=1:0.90
Default : Yes
Forced : No

Audio #1
ID : 2
Format : AC-3
Format/Info : Audio Coding 3
Format settings, Endianness : Big
Codec ID : A_AC3
Duration : 1 h 34 min
Bit rate mode : Constant
Bit rate : 448 kb/s
Channel(s) : 6 channels
Channel positions : Front: L C R, Side: L R, LFE
Sampling rate : 48.0 kHz
Frame rate : 31.250 FPS (1536 SPF)
Bit depth : 16 bits
Compression mode : Lossy
Stream size : 303 MiB (7%)
Title : AVO - Д.Есарев
Language : Russian
Service kind : Complete Main
Default : Yes
Forced : No

Audio #2
ID : 3
Format : AC-3
Format/Info : Audio Coding 3
Format settings, Endianness : Big
Codec ID : A_AC3
Duration : 1 h 34 min
Bit rate mode : Constant
Bit rate : 384 kb/s
Channel(s) : 2 channels
Channel positions : Front: L R
Sampling rate : 48.0 kHz
Frame rate : 31.250 FPS (1536 SPF)
Bit depth : 16 bits
Compression mode : Lossy
Stream size : 260 MiB (6%)
Title : DVO - НТВ+
Language : Russian
Service kind : Complete Main
Default : No
Forced : No

Audio #3
ID : 4
Format : AC-3
Format/Info : Audio Coding 3
Format settings, Endianness : Big
Codec ID : A_AC3
Duration : 1 h 34 min
Bit rate mode : Constant
Bit rate : 448 kb/s
Channel(s) : 6 channels
Channel positions : Front: L C R, Side: L R, LFE
Sampling rate : 48.0 kHz
Frame rate : 31.250 FPS (1536 SPF)
Bit depth : 16 bits
Compression mode : Lossy
Stream size : 303 MiB (7%)
Title : Original
Language : English
Service kind : Complete Main
Default : No
Forced : No

Text #1
ID : 5
Format : UTF-8
Codec ID : S_TEXT/UTF8
Codec ID/Info : UTF-8 Plain Text
Duration : 1 h 28 min
Bit rate : 62 b/s
Count of elements : 1144
Stream size : 40.8 KiB (0%)
Title : full
Language : English
Default : No
Forced : No

Text #2
ID : 6
Format : UTF-8
Codec ID : S_TEXT/UTF8
Codec ID/Info : UTF-8 Plain Text
Duration : 1 h 31 min
Bit rate : 65 b/s
Count of elements : 1266
Stream size : 43.9 KiB (0%)
Title : SDH
Language : English
Default : No
Forced : No

Menu
00:00:00.000 : en:00:00:00.000
00:02:40.369 : en:00:02:40.369
00:20:43.325 : en:00:20:43.325
00:29:43.865 : en:00:29:43.865
00:33:41.269 : en:00:33:41.269
00:41:07.799 : en:00:41:07.799
00:46:46.053 : en:00:46:46.053
00:49:22.459 : en:00:49:22.459
00:57:53.095 : en:00:57:53.095
01:13:07.633 : en:01:13:07.633
01:21:50.697 : en:01:21:50.697
Аватара пользователя
kisa1980
Помощник Администратора-Корсар
 
 

Награды: 40
За помощь проекту (5) Лучший по количеству кубков (3) За отличные раздачи и качество (13) За подробное оформление раздач (4) За отличные комментарии (4) Почётный форумчанин (2) Верный Сид (5) За участие в конкурсах (2)
  • Торрент
Для скачивания торрента необходимо зарегистрироваться или войти на трекер.

Вернуться в Зарубежное кино (1991-2000 / HD Video)



Uptime по данным Ping-Admin.Ru - сервиса мониторинга доступности сайтов
Рейтинг@Mail.ru