logo
Международный русскоязычный
торрент-трекер
Menu

Doublon
Поделиться с друзьями: 
Голосуй за Корсар и получи 400 дублонов
Рейтинг торрент трекеров - UpTracker.ru

Аутсайдер / The Outsider (2002, Драма, мелодрама, вестерн, WEB-DL 1080p) - KORSAR

Сообщение mzma » 11 окт 2018, 11:20

Название: Аутсайдер
Оригинальное название: The Outsider
Год выпуска: 2002
Выпущено: США, Hallmark Entertainment
Жанр: Драма, мелодрама, вестерн
Режиссер: Рэнда Хейнс
В ролях: Тим Дейли, Наоми Уоттс, Кит Кэрредин, Дэвид Кэрредин, Томас Кертис, Бретт Таккер, Джон Ноубл, Грант Пиро, Питер МакКоли, Джейсон Кларк

О фильме: Старожилы-ранчеры Монтаны совершают регулярные набеги на земли своих соседей - новых поселенцев из религиозной общины амишей, сопровождающиеся насилием и убийствами, и власти не делают ничего, чтобы остановить беззаконие. Но когда Ребекка, вдова одного из убитых бандитами, спасает от смерти раненого стрелка Джонни Голта, ситуация меняется. Еще не оправившись после ранения, Джонни, всем сердцем полюбивший Ребекку, вступает в стычку с «плохими парнями». Но члены религиозной общины, руководствуясь заповедью «второй щеки», не желают терпеть у себя подозрительного чужака с револьвером и к тому же осмелившегося полюбить их единоверку. Ребекка и Джонни готовы любой ценой защищать свою любовь и право жить на собственной земле…



Продолжительность: 01:56:50
Перевод: Профессиональный двухголосый
Субтитры: Русские, английские
Навигация по главам: Есть

Качество: WEB-DL 1080p
Видео: MPEG-4 AVC, 12,2 Мбит/сек, 1920x1080, 23,976 кадра/сек
Аудио #1: AC3, 6 ch, 448 Кбит/сек | Русский, профессиональный (двухголосый закадровый) Екатеринбург Арт
Аудио #2: AC3, 6 ch, 448 Кбит/сек | Английский, оригинал, DVD
Аудио #3: EAC3, 2 ch, 224 Кбит/сек | Английский, оригинал, WEB

Сборка:


Общее
Уникальный идентификатор : 177831090986165655732230849813248233565 (0x85C905B696ADB495BE254F44AD70505D)
Полное имя : Аутсайдер.2002.WEB-DL.1080p.mkv
Формат : Matroska
Версия формата : Version 2
Размер файла : 11,1 Гбайт
Продолжительность : 1 ч. 56 м.
Общий поток : 13,6 Мбит/сек
Дата кодирования : UTC 2018-10-10 16:03:07
Программа кодирования : mkvmerge v5.8.0 ('No Sleep / Pillow') built on Sep 2 2012 15:37:04
Библиотека кодирования : libebml v1.2.3 + libmatroska v1.3.0

Видео
Идентификатор : 1
Формат : AVC
Формат/Информация : Advanced Video Codec
Профиль формата : High@L4
Настройки формата : CABAC / 4 Ref Frames
Параметр CABAC формата : Да
Параметр RefFrames формата : 4 кадра
Идентификатор кодека : V_MPEG4/ISO/AVC
Продолжительность : 1 ч. 56 м.
Битрейт : 12,2 Мбит/сек
Ширина : 1920 пикселей
Высота : 1080 пикселей
Соотношение сторон : 16:9
Режим частоты кадров : Постоянный
Частота кадров : 23,976 (24000/1001) кадра/сек
Цветовое пространство : YUV
Субдискретизация насыщенности : 4:2:0
Битовая глубина : 8 бит
Тип развёртки : Прогрессивная
Бит/(Пиксели*Кадры) : 0.246
Размер потока : 9,98 Гбайт (90%)
Язык : English
По умолчанию : Да
Принудительно : Нет
Цветовой диапазон : Limited
Основные цвета : BT.709
Характеристики трансфера : BT.709
Коэффициенты матрицы : BT.709

Аудио #1
Идентификатор : 2
Формат : AC-3
Формат/Информация : Audio Coding 3
Идентификатор кодека : A_AC3
Продолжительность : 1 ч. 56 м.
Вид битрейта : Постоянный
Битрейт : 448 Кбит/сек
Каналы : 6 каналов
Расположение каналов : Front: L C R, Side: L R, LFE
Частота : 48,0 КГц
Частота кадров : 31,250 кадров/сек (1536 SPF)
Битовая глубина : 16 бит
Метод сжатия : С потерями
Размер потока : 374 Мбайт (3%)
Заголовок : DVO | Екатеринбург Арт
Язык : Russian
По умолчанию : Да
Принудительно : Нет

Аудио #2
Идентификатор : 3
Формат : AC-3
Формат/Информация : Audio Coding 3
Идентификатор кодека : A_AC3
Продолжительность : 1 ч. 56 м.
Вид битрейта : Постоянный
Битрейт : 448 Кбит/сек
Каналы : 6 каналов
Расположение каналов : Front: L C R, Side: L R, LFE
Частота : 48,0 КГц
Частота кадров : 31,250 кадров/сек (1536 SPF)
Битовая глубина : 16 бит
Метод сжатия : С потерями
Размер потока : 374 Мбайт (3%)
Заголовок : Original | 5.1
Язык : English
По умолчанию : Нет
Принудительно : Нет

Аудио #3
Идентификатор : 4
Формат : E-AC-3
Формат/Информация : Enhanced Audio Coding 3
Идентификатор кодека : A_EAC3
Продолжительность : 1 ч. 56 м.
Вид битрейта : Постоянный
Битрейт : 224 Кбит/сек
Каналы : 2 канала
Расположение каналов : Front: L R
Частота : 48,0 КГц
Частота кадров : 187,500 кадров/сек (256 SPF)
Метод сжатия : С потерями
Размер потока : 187 Мбайт (2%)
Заголовок : Original | 2.0
Язык : English
По умолчанию : Нет
Принудительно : Нет

Текст #1
Идентификатор : 5
Формат : UTF-8
Идентификатор кодека : S_TEXT/UTF8
Идентификатор кодека/Информация : UTF-8 Plain Text
Язык : Russian
По умолчанию : Нет
Принудительно : Нет

Текст #2
Идентификатор : 6
Формат : UTF-8
Идентификатор кодека : S_TEXT/UTF8
Идентификатор кодека/Информация : UTF-8 Plain Text
Заголовок : SDH
Язык : English
По умолчанию : Нет
Принудительно : Нет

Меню
00:00:00.000 : en:Chapter 01
00:07:15.038 : en:Chapter 02
00:11:04.017 : en:Chapter 03
00:19:05.781 : en:Chapter 04
00:25:03.430 : en:Chapter 05
00:32:31.837 : en:Chapter 06
00:40:39.240 : en:Chapter 07
00:46:06.818 : en:Chapter 08
00:52:35.915 : en:Chapter 09
01:00:13.346 : en:Chapter 10
01:05:52.627 : en:Chapter 11
01:15:58.491 : en:Chapter 12
01:23:30.367 : en:Chapter 13
01:28:52.581 : en:Chapter 14
01:35:37.819 : en:Chapter 15
01:42:52.253 : en:Chapter 16
01:47:23.048 : en:Chapter 17
01:53:23.199 : en:Chapter 18

• Исходник видео WEB-DL Amazon.
Аватара пользователя
mzma
Главный Модератор-Корсар
 
 

Награды: 76
За помощь проекту (3) Лучший по количеству кубков (6) За отличные раздачи и качество (43) За подробное оформление раздач (10) Верный Сид (12)
Раздачи группы KORSAR разрешено перезаливать спустя сутки после публикации
  • Торрент
Для скачивания торрента необходимо зарегистрироваться или войти на трекер.

Вернуться в Зарубежное кино (2001-2010 / HD Video)



Uptime по данным Ping-Admin.Ru - сервиса мониторинга доступности сайтов
Рейтинг@Mail.ru Голосуйте за наш сайт в каталоге Rubo.Ru
cron