logo
Международный русскоязычный
торрент-трекер
Menu
"Бунт на корабле", за скачанные торрент-файлы дублоны не снимаются. Возможность оплачена пользователем маклаут.
Doublon
Поделиться с друзьями: 
Голосуй за Корсар и получи 500 дублонов
Рейтинг торрент трекеров - UpTracker.ru

Армейские приключения / In the Army Now (1994, Комедия, военный, WEB-DLRip 720p) - KORSAR

Сообщение MZMA » 03 апр 2018, 12:04

Название: Армейские приключения
Оригинальное название: In the Army Now
Год выпуска: 1994
Выпущено: США, Hollywood Pictures
Жанр: Комедия, военный
Режиссер: Дэниел Питри мл.
В ролях: Поли Шор, Энди Дик, Лори Петти, Дэвид Алан Грир, Эсай Моралес, Линн Уитфилд, Арт ЛаФлёр, Фабиана Уденио, Гленн Моршауэр, Биу Биллингсли

О фильме: Закадычные друзья Боунз и Джек вовсе не думали становиться героями. Они записались в резервисты американской армии, чтобы заработать денег и открыть собственный магазин. Но тихой службы в тылу не получилось. Свободный мир опять в опасности, и вот уже бравые вояки отправляются сражаться в Африку.Это совсем не входило в планы Боунза и Джека, которых по уровню героизма в крови обогнал бы и кролик. Но тут, по иронии судьбы, дело обернулось так, что именно этому эксцентричному дуэту предстоит внести основной вклад в победу.



Продолжительность: 01:32:15
Перевод: Профессиональный многоголосый, профессиональный двухголосый, авторский
Субтитры: Английские, финские, эстонские
Навигация по главам: Есть

Качество: WEB-DLRip 720p
Видео: MPEG-4 AVC, 7249 Кбит/сек, 1280x720, 23,976 кадра/сек
Аудио #1: AC3, 2 ch, 192 Кбит/сек | Русский, профессиональный (многоголосый закадровый) «CTC», DVD
Аудио #2: AC3, 2 ch, 192 Кбит/сек | Русский, профессиональный (двухголосый закадровый) Видеосервис, VHS alenavova
Аудио #3: AC3, 2 ch, 192 Кбит/сек | Русский, авторский (одноголосый закадровый) Василий Горчаков
Аудио #4: AC3, 2 ch, 192 Кбит/сек | Русский, авторский (одноголосый закадровый) Вартан Дохалов
Аудио #5: AC3, 2 ch, 192 Кбит/сек | Английский, оригинал


x264 [info]: frame I:909 Avg QP:15.99 size:165160
x264 [info]: frame P:30868 Avg QP:18.49 size: 66767
x264 [info]: frame B:100920 Avg QP:20.34 size: 27763
-----------------------------------------------------
Общее
Уникальный идентификатор : 172694892912573029962818090156843375276 (0x81EBD398CD09AD2FB0B3E01DE3CC9AAC)
Полное имя : Армейские.приключения.1994.WEB-DLRip.720p.KORSAR.mkv
Формат : Matroska
Версия формата : Version 2
Размер файла : 5,29 Гбайт
Продолжительность : 1 ч. 32 м.
Общий поток : 8209 Кбит/сек
Дата кодирования : UTC 2018-04-03 08:34:13
Программа кодирования : mkvmerge v5.8.0 ('No Sleep / Pillow') built on Sep 2 2012 15:37:04
Библиотека кодирования : libebml v1.2.3 + libmatroska v1.3.0

Видео
Идентификатор : 1
Формат : AVC
Формат/Информация : Advanced Video Codec
Профиль формата : High@L4.1
Настройки формата : CABAC / 9 Ref Frames
Параметр CABAC формата : Да
Параметр RefFrames формата : 9 кадров
Идентификатор кодека : V_MPEG4/ISO/AVC
Продолжительность : 1 ч. 32 м.
Битрейт : 7249 Кбит/сек
Ширина : 1280 пикселей
Высота : 720 пикселей
Соотношение сторон : 16:9
Режим частоты кадров : Постоянный
Частота кадров : 23,976 (24000/1001) кадра/сек
Цветовое пространство : YUV
Субдискретизация насыщенности : 4:2:0
Битовая глубина : 8 бит
Тип развёртки : Прогрессивная
Бит/(Пиксели*Кадры) : 0.328
Размер потока : 4,57 Гбайт (86%)
Заголовок : RIP | MZMA
Библиотека кодирования : x264 core 152 r2851kMod ba24899
Настройки программы : cabac=1 / ref=9 / deblock=1:-3:-3 / analyse=0x3:0x113 / me=umh / subme=11 / psy=1 / fade_compensate=0.00 / psy_rd=1.00:0.00 / mixed_ref=1 / me_range=48 / chroma_me=1 / trellis=2 / 8x8dct=1 / cqm=0 / deadzone=21,11 / fast_pskip=0 / chroma_qp_offset=-2 / threads=6 / lookahead_threads=1 / sliced_threads=0 / nr=0 / decimate=0 / interlaced=0 / bluray_compat=0 / constrained_intra=0 / bframes=16 / b_pyramid=2 / b_adapt=2 / b_bias=0 / direct=3 / weightb=1 / open_gop=0 / weightp=2 / keyint=240 / keyint_min=23 / scenecut=40 / intra_refresh=0 / rc_lookahead=40 / rc=2pass / mbtree=0 / bitrate=7249 / ratetol=1.0 / qcomp=0.60 / qpmin=0 / qpmax=69 / qpstep=4 / cplxblur=20.0 / qblur=0.5 / vbv_maxrate=50000 / vbv_bufsize=62500 / nal_hrd=none / filler=0 / ip_ratio=1.40 / pb_ratio=1.30 / aq=3:0.70
Язык : English
Default : Да
Forced : Нет
Цветовой диапазон : Limited
Основные цвета : BT.709
Характеристики трансфера : BT.709
Коэффициенты матрицы : BT.709

Аудио #1
Идентификатор : 2
Формат : AC-3
Формат/Информация : Audio Coding 3
Идентификатор кодека : A_AC3
Продолжительность : 1 ч. 32 м.
Вид битрейта : Постоянный
Битрейт : 192 Кбит/сек
Каналы : 2 канала
Расположение каналов : Front: L R
Частота : 48,0 КГц
Частота кадров : 31,250 кадров/сек (1536 SPF)
Битовая глубина : 16 бит
Метод сжатия : С потерями
Размер потока : 127 Мбайт (2%)
Заголовок : MVO | «CTC», DVD
Язык : Russian
По умолчанию : Да
Принудительно : Нет

Аудио #2
Идентификатор : 3
Формат : AC-3
Формат/Информация : Audio Coding 3
Идентификатор кодека : A_AC3
Продолжительность : 1 ч. 32 м.
Вид битрейта : Постоянный
Битрейт : 192 Кбит/сек
Каналы : 2 канала
Расположение каналов : Front: L R
Частота : 48,0 КГц
Частота кадров : 31,250 кадров/сек (1536 SPF)
Битовая глубина : 16 бит
Метод сжатия : С потерями
Размер потока : 127 Мбайт (2%)
Заголовок : DVO | Видеосервис, VHS
Язык : Russian
По умолчанию : Нет
Принудительно : Нет

Аудио #3
Идентификатор : 4
Формат : AC-3
Формат/Информация : Audio Coding 3
Идентификатор кодека : A_AC3
Продолжительность : 1 ч. 32 м.
Вид битрейта : Постоянный
Битрейт : 192 Кбит/сек
Каналы : 2 канала
Расположение каналов : Front: L R
Частота : 48,0 КГц
Частота кадров : 31,250 кадров/сек (1536 SPF)
Битовая глубина : 16 бит
Метод сжатия : С потерями
Размер потока : 127 Мбайт (2%)
Заголовок : AVO | В. Горчаков
Язык : Russian
По умолчанию : Нет
Принудительно : Нет

Аудио #4
Идентификатор : 5
Формат : AC-3
Формат/Информация : Audio Coding 3
Идентификатор кодека : A_AC3
Продолжительность : 1 ч. 32 м.
Вид битрейта : Постоянный
Битрейт : 192 Кбит/сек
Каналы : 2 канала
Расположение каналов : Front: L R
Частота : 48,0 КГц
Частота кадров : 31,250 кадров/сек (1536 SPF)
Битовая глубина : 16 бит
Метод сжатия : С потерями
Размер потока : 127 Мбайт (2%)
Заголовок : AVO | В. Дохалов
Язык : Russian
По умолчанию : Нет
Принудительно : Нет

Аудио #5
Идентификатор : 6
Формат : AC-3
Формат/Информация : Audio Coding 3
Идентификатор кодека : A_AC3
Продолжительность : 1 ч. 32 м.
Вид битрейта : Постоянный
Битрейт : 192 Кбит/сек
Каналы : 2 канала
Расположение каналов : Front: L R
Частота : 48,0 КГц
Частота кадров : 31,250 кадров/сек (1536 SPF)
Битовая глубина : 16 бит
Метод сжатия : С потерями
Размер потока : 127 Мбайт (2%)
Заголовок : Original
Язык : English
По умолчанию : Нет
Принудительно : Нет

Текст #1
Идентификатор : 7
Формат : UTF-8
Идентификатор кодека : S_TEXT/UTF8
Идентификатор кодека/Информация : UTF-8 Plain Text
Язык : English
По умолчанию : Нет
Принудительно : Нет

Текст #2
Идентификатор : 8
Формат : UTF-8
Идентификатор кодека : S_TEXT/UTF8
Идентификатор кодека/Информация : UTF-8 Plain Text
Язык : Finnish
По умолчанию : Нет
Принудительно : Нет

Текст #3
Идентификатор : 9
Формат : UTF-8
Идентификатор кодека : S_TEXT/UTF8
Идентификатор кодека/Информация : UTF-8 Plain Text
Язык : Estonian
По умолчанию : Нет
Принудительно : Нет

Меню
00:00:00.000 : en:Chapter 01
00:06:17.130 : en:Chapter 02
00:10:39.892 : en:Chapter 03
00:21:19.615 : en:Chapter 04
00:31:14.376 : en:Chapter 05
00:44:18.576 : en:Chapter 06
00:57:12.732 : en:Chapter 07
01:01:31.107 : en:Chapter 08
01:10:42.992 : en:Chapter 09
01:26:39.197 : en:Chapter 10


За дорожку Видеосервис, VHS - спасибо alenavova.
Просьба отключить блокировщики рекламы на странице скриншотов по адресу: http://3.lostpic.net/, этим Вы поможете существованию проекта. Заранее спасибо!
При скачивании раздач данного релизёра, дублоны не снимаются, а за сидирование установлен максимальный коэффициент. Просьба ко всем, поддержать сидированием раздачи Леонида и сохранить о нём память!
КУБКИ

СТАЖ

МЕДАЛИ
Награды:122

За активную помощь проекту (4) Лучший по количеству кубков (17) За отличные раздачи и качество (58) За подробное оформление раздач (11) За отличные комментарии (5) Почётный форумчанин (1) Верный Сид (26)

Аватара пользователя
СССР
MZMA
Заслуженный Корсар-Вип+
Раздачи группы KORSAR разрешено перезаливать спустя 7 дней после публикации и с обязательным добавлением банера
  • Торрент
Для скачивания торрента необходимо зарегистрироваться или войти на трекер.

Сообщение kisa1980 » 03 апр 2018, 12:30

Леонид спасибо!!! :10 balov: :-good:
КУБКИ

СТАЖ

МЕДАЛИ
Награды:97

За активную помощь проекту (10) Лучший по количеству кубков (3) За отличные раздачи и качество (37) За подробное оформление раздач (6) За отличные комментарии (9) Почётный форумчанин (1) Верный Сид (28) За участие в конкурсах/играх (2)

Аватара пользователя
Тортуга
kisa1980
Главный помощник Администратора-Корсар


Вернуться в Зарубежное кино (1991-2000 / HD Video)



Uptime по данным Ping-Admin.Ru - сервиса мониторинга доступности сайтов
Рейтинг@Mail.ru