logo
Международный русскоязычный
торрент-трекер
Menu
"Бунт на корабле", за скачанные торрент-файлы дублоны не снимаются. Возможность оплачена пользователем Gogen.
Doublon
Поделиться с друзьями: 
Голосуй за Корсар и получи 500 дублонов
Рейтинг торрент трекеров - UpTracker.ru

Апачи / Apachen (1973, вестерн, HDRip)

Сообщение Шкипер » 10 июл 2019, 14:28

Название: Апачи
Оригинальное название: Apachen
Год выпуска: 1973
Жанр: Вестерн
Режиссёр: Готфрид Кольдитц
В ролях: Гойко Митич, Милан Бели, Коля Рэуту, Леон Немчик, Джерри Вольф, Эльза Грубе-Дайстер, Фред Людвиг, Фред Дельмаре, Хартмут Бер, Хорст Кубе

О фильме: Действие фильма происходит в пограничной области между США и Мексикой в 1848 году, когда Мексике пришлось уступить Америке территорию нынешних штатов Аризона, Нью-Мексико, Юта и Колорадо. Апачи племени мимбреньо в «Новой Испании» заключают с мексиканской горнопромышленной компанией договор, позволяющий мексиканцам производить разведочные работы...


Выпущено: Германия (ГДР), Румыния, СССР
Перевод: Профессиональный дублированный
Продолжительность: 01:29:47

Видео кодек: XviD
Качество: HDRip
Видео: XviD build 73, 640x272, 25.000 fps, 1023 kbps avg
Битрейт аудио: MP3, 2 ch, 128 Кбит/с


Автор:
Группа:

General
Complete name : D:\Апачи 1973.HDRip by ExKinoRay.avi
Format : AVI
Format/Info : Audio Video Interleave
File size : 745 MiB
Duration : 1 h 29 min
Overall bit rate : 1 161 kb/s
Writing application : VirtualDubMod 1.5.10.3 | http://www.virtualdub-fr.org || (build 2550/release)
Writing library : VirtualDubMod build 2550/release

Video
ID : 0
Format : MPEG-4 Visual
Format profile : Advanced Simple@L5
Format settings : BVOP1 / Custom Matrix
Format settings, BVOP : 1
Format settings, QPel : No
Format settings, GMC : No warppoints
Format settings, Matrix : Custom
Codec ID : XVID
Codec ID/Hint : XviD
Duration : 1 h 29 min
Bit rate : 1 023 kb/s
Width : 640 pixels
Height : 272 pixels
Display aspect ratio : 2.35:1
Frame rate : 25.000 FPS
Color space : YUV
Chroma subsampling : 4:2:0
Bit depth : 8 bits
Scan type : Progressive
Compression mode : Lossy
Bits/(Pixel*Frame) : 0.235
Stream size : 657 MiB (88%)
Writing library : XviD 73

Audio
ID : 1
Format : MPEG Audio
Format version : Version 1
Format profile : Layer 3
Codec ID : 55
Codec ID/Hint : MP3
Duration : 1 h 29 min
Bit rate mode : Constant
Bit rate : 128 kb/s
Channel(s) : 2 channels
Sampling rate : 48.0 kHz
Frame rate : 41.667 FPS (1152 SPF)
Compression mode : Lossy
Stream size : 82.2 MiB (11%)
Alignment : Aligned on interleaves
Interleave, duration : 40 ms (1.00 video frame)
Interleave, preload duratio : 504 ms
Writing library : LAME3.99r
Encoding settings : -m s -V 4 -q 2 -lowpass 17 -b 128
КУБКИ

СТАЖ

МЕДАЛИ
Награды:14

За отличные раздачи и качество (8) Почётный форумчанин (2)

Аватара пользователя
Шкипер
Опытный Релизёр-Корсар
  • Торрент
Для скачивания торрента необходимо зарегистрироваться или войти на трекер.

Вернуться в Классика зарубежного кино (фильмы до 1980 года)



Uptime по данным Ping-Admin.Ru - сервиса мониторинга доступности сайтов
Рейтинг@Mail.ru Голосуйте за наш сайт в каталоге Rubo.Ru