logo
Международный русскоязычный
торрент-трекер
Menu

Doublon
Поделиться с друзьями: 
Голосуй за Корсар и получи 400 дублонов
Рейтинг торрент трекеров - UpTracker.ru

Анна Герман. Дом любви и солнца (2016, Документальный, HDTV 1080i)

Сообщение Korsar » 14 янв 2017, 19:08

Анна Герман. Дом любви и солнца
Год выпуска: 2016
Страна: Россия
Жанр: документальный
Продолжительность: 00:49:52
Перевод: не требуется
Русские субтитры: есть
Автор: Зарема Джаубаева
Режиссер: Георгий Ананов
Описание: В нашей стране певицу никогда не забывали, а в Польше молодые люди до недавнего времени даже не знали, кто такая Анна Герман!
Все изменилось после выхода сериала "Анна Герман. Тайна Белого ангела" – сначала в России на Первом канале, затем на Варшавском ТВ. Сериал побил все рейтинги! Поляки будто заново открыли для себя свою великую соотечественницу. Специально для нашего фильма мы съездили в Польшу, где встретились с Йоанной Моро, которая сыграла в сериале Анну Герман, взяли у нее интервью. Вместе с актрисой мы сходили на кладбище, где захоронена певица. ...
В нашей стране певицу никогда не забывали, а в Польше молодые люди до недавнего времени даже не знали, кто такая Анна Герман!
Все изменилось после выхода сериала "Анна Герман. Тайна Белого ангела" – сначала в России на Первом канале, затем на Варшавском ТВ. Сериал побил все рейтинги! Поляки будто заново открыли для себя свою великую соотечественницу. Специально для нашего фильма мы съездили в Польшу, где встретились с Йоанной Моро, которая сыграла в сериале Анну Герман, взяли у нее интервью. Вместе с актрисой мы сходили на кладбище, где захоронена певица.
С мужем Збигневом Тухольским Анна была знакома четверть века. Они встретились случайно, на пляже. Это была любовь с первого взгляда. Но их совместная жизнь не была легкой. Им всегда что-то или кто-то мешал. Даже просто дойти до ЗАГСа. Сначала против их отношений была мама певицы. Затем помешала страшная автокатастрофа, когда на скорости 160 км/час машина, где была Анна Герман, врезалась в ограждение. Певицу практически собирали по кусочкам!
Мы встретились с организатором ее концертов в СССР, певицей Аллой Бегалиевой. Она вспоминает, как, помогая певице переодеваться, видела ее шрамы на спине – ни одного живого места! В сериале Анна Герман встала на ноги за две серии, а в реальной жизни это заняло долгих три года!
Анна Герман удивляет своей решимостью и силой духа. Так, после восстановления случилось еще одно чудо – она родила сына, хотя врачи говорили, что это вряд ли будет возможно. Мы нашли врача-акушера, который вел беременность певицы, когда она была в СССР, специально для нашего канала он согласился дать интервью.
Анна Герман пела даже будучи глубоко беременной. А все потому, что ей были нужны деньги на свою мечту. Долгие годы, ютясь в однокомнатной квартирке, она мечтала о собственном доме. Певица была просто одержима этой идеей. Много лет ценой изнурительных гастролей она зарабатывала деньги на собственный дом. Она купила его только в 78 году, когда ей было 42 года. Анна называла свой дом – Дворец Счастья и Солнца. Мы сняли в Варшаве ее дом, ее последнее пристанище. Анна Герман умерла от саркомы кости 25 августа 1982 года. Ей было всего 46 лет.
Анны Герман давно нет в живых. Но живы её песни. Феномен Анны Герман не дает покоя популярным исполнителям. Ей посвящают целые телепрограммы, ее песни используют в своем репертуаре молодые певицы, а ее образ часто воссоздают в популярных шоу. Мы покажем номера из телешоу "Точь-в-точь" и запишем интервью с Еленой Ваенгой, которая на проекте перевоплощалась в Анну Герман.

В фильме принимают участие:
Збигнев Тухольский – муж Анны Герман
Йоанна Моро – актриса
Анджей Урбанчик – друг семьи Анны Герман
Тадеуш Вацловски – аккомпаниатор Анны Герман
Людмила Иванова – актриса, подруга Анны Герман
Елена Ваенга – певица
Ангелина Вовк – телеведущая
Лев Лещенко – певец
Таисия Повалий – певица
Иван Ильичев – биограф Анны Герман
Алла Бегалиева – певица, организатор концертов Анны Герман

Тип релиза: HDTV 1080i
Контейнер: TS
Видео: AVC (H264), 1920x1080 (16:9), 25 fps, 8310 Kbps
Аудио 1: AC3, 48 KHz, 6 ch, 384 Kbps
Аудио 2: MP2, 48 KHz, 2 ch, 192 Kbps
Формат субтитров: Teletext Subtitles
Код: Выделить всё
General
ID                          : 1 (0x1)
Complete name               : D:\Анна Герман. Дом любви и солнца (2016) [HDTV 1080i].ts
Format                      : MPEG-TS
File size                   : 3.26 GiB
Duration                    : 49mn 52s
Overall bit rate mode       : Variable
Overall bit rate            : 9 354 Kbps

Video
ID                          : 305 (0x131)
Menu ID                     : 20105 (0x4E89)
Format                      : AVC
Format/Info                 : Advanced Video Codec
Format profile              : High@L4
Format settings, CABAC      : Yes
Format settings, ReFrames   : 4 frames
Codec ID                    : 27
Duration                    : 49mn 52s
Bit rate                    : 8 310 Kbps
Width                       : 1 920 pixels
Height                      : 1 080 pixels
Display aspect ratio        : 16:9
Frame rate                  : 25.000 fps
Standard                    : Component
Color space                 : YUV
Chroma subsampling          : 4:2:0
Bit depth                   : 8 bits
Scan type                   : Interlaced
Scan type, store method     : Separated fields
Scan order                  : Top Field First
Bits/(Pixel*Frame)          : 0.160
Stream size                 : 2.89 GiB (89%)
Color range                 : Limited
Color primaries             : BT.709
Transfer characteristics    : BT.709
Matrix coefficients         : BT.709

Audio #1
ID                          : 405 (0x195)
Menu ID                     : 20105 (0x4E89)
Format                      : AC-3
Format/Info                 : Audio Coding 3
Mode extension              : CM (complete main)
Format settings, Endianness : Big
Codec ID                    : 6
Duration                    : 49mn 52s
Bit rate mode               : Constant
Bit rate                    : 384 Kbps
Channel(s)                  : 6 channels
Channel positions           : Front: L C R, Side: L R, LFE
Sampling rate               : 48.0 KHz
Frame rate                  : 31.250 fps (1536 spf)
Compression mode            : Lossy
Stream size                 : 137 MiB (4%)
Language                    : Russian

Audio #2
ID                          : 406 (0x196)
Menu ID                     : 20105 (0x4E89)
Format                      : MPEG Audio
Format version              : Version 1
Format profile              : Layer 2
Codec ID                    : 3
Duration                    : 49mn 52s
Bit rate mode               : Constant
Bit rate                    : 192 Kbps
Channel(s)                  : 2 channels
Sampling rate               : 48.0 KHz
Compression mode            : Lossy
Stream size                 : 68.5 MiB (2%)
Language                    : Russian

Text
ID                          : 407 (0x197)-888
Menu ID                     : 20105 (0x4E89)
Format                      : Teletext Subtitle
Language                    : Russian

Боцман
Аватара пользователя
Korsar
Заслуженный Корсар-Вип+
 
 

Награды: 32
За помощь проекту (2) Лучший по количеству кубков (2) За отличные раздачи и качество (13) За подробное оформление раздач (1) За отличные комментарии (1) Верный Сид (11) За участие в конкурсах/играх (2)
  • Торрент
Для скачивания торрента необходимо зарегистрироваться или войти на трекер.

Вернуться в Биографии. Личности и кумиры (HD Video)



Uptime по данным Ping-Admin.Ru - сервиса мониторинга доступности сайтов
Рейтинг@Mail.ru Голосуйте за наш сайт в каталоге Rubo.Ru
cron