logo
Международный русскоязычный
торрент-трекер
Menu
Doublon
Поделиться с друзьями: 
Голосуй за Корсар и получи 500 дублонов
Рейтинг торрент трекеров - UpTracker.ru

Ангел мой / Angel of Mine (2019, триллер, драма, BDRip 1080p) | iTunes

Непрочитанное сообщение kisa1980 » 09 окт 2019, 23:19

Название: Ангел мой
Оригинальное название: Angel of Mine
Год выхода: 2019
Жанр: Триллер, драма
Режиссер: Ким Фаррант
В ролях: Ивонн Страховски, Люк Эванс, Нуми Рапас, Ричард Роксбург, Роб Коллинз, Финн Литтл, Рэйчел Гордон, Пип Миллер, Мирко Гриллини, Трэйси Манн

О фильме: Несколько лет Лиззи не может смириться с потерей дочери, погибшей при пожаре. Но однажды она знакомится с чужой девочкой и принимает ее за своего потерянного ребенка.



Страна: Австралия, США
Студия: Magna Entertainment, Garlin Pictures, R7 Entertainment
Продолжительность: 01:38:38
Перевод: Дублированный | iTunes

Качество: BDRip 1080p
Видео: MPEG-4 AVC, 1920x804, 10.9 Mbit/s, 23.976 fps
Аудио 1: 48 kHz, AC3, 5.1, 384 Kbps | iTunes | RUS |
Аудио 2: 48 kHz, AC3, 5.1, 640 Kbps | Оригинал | ENG |
Субтитры: Английские

Релиз от:

General
Unique ID : 246471367678644699507269699096471912396 (0xB96CA8A37D13D44A4BEF0DA8CF5FBFCC)
Complete name : D:Video111Angel.of.Mine.2019.BDRip.1080p.seleZen.mkv
Format : Matroska
Format version : Version 4
File size : 8.19 GiB
Duration : 1 h 38 min
Overall bit rate : 11.9 Mb/s
Movie name : Angel of Mine 2019 from селезень
Encoded date : UTC 2019-10-09 20:05:16
Writing application : mkvmerge v22.0.0 ('At The End Of The World') 64-bit
Writing library : libebml v1.3.5 + libmatroska v1.4.8

Video
ID : 1
Format : AVC
Format/Info : Advanced Video Codec
Format profile : High@L4.1
Format settings : CABAC / 5 Ref Frames
Format settings, CABAC : Yes
Format settings, Reference : 5 frames
Codec ID : V_MPEG4/ISO/AVC
Duration : 1 h 38 min
Bit rate : 10.9 Mb/s
Width : 1 920 pixels
Height : 804 pixels
Display aspect ratio : 2.40:1
Frame rate mode : Constant
Frame rate : 23.976 (24000/1001) FPS
Color space : YUV
Chroma subsampling : 4:2:0
Bit depth : 8 bits
Scan type : Progressive
Bits/(Pixel*Frame) : 0.293
Stream size : 7.48 GiB (91%)
Title : HDH
Writing library : x264 core 142 r2431+42 c69a006 tMod [8-bit@4:2:0 X86_64]
Encoding settings : cabac=1 / ref=5 / deblock=1:-3:-3 / analyse=0x3:0x113 / me=umh / subme=10 / psy=1 / fade_compensate=0.00 / psy_rd=1.00:0.05 / mixed_ref=1 / me_range=48 / chroma_me=1 / trellis=2 / 8x8dct=1 / cqm=0 / deadzone=21,11 / fast_pskip=0 / chroma_qp_offset=-2 / threads=48 / lookahead_threads=6 / sliced_threads=0 / nr=0 / decimate=1 / interlaced=0 / bluray_compat=0 / constrained_intra=0 / fgo=0 / bframes=8 / b_pyramid=2 / b_adapt=2 / b_bias=0 / direct=3 / weightb=1 / open_gop=0 / weightp=2 / keyint=250 / keyint_min=23 / scenecut=40 / intra_refresh=0 / rc_lookahead=40 / rc=crf / mbtree=0 / crf=16.3000 / qcomp=0.60 / qpmin=0:0:0 / qpmax=69:69:69 / qpstep=4 / vbv_maxrate=40000 / vbv_bufsize=30000 / crf_max=0.0 / nal_hrd=none / filler=0 / ip_ratio=1.40 / pb_ratio=1.30 / aq=3:0.80 / aq-sensitivity=10.00 / aq-factor=1.00:1.00:1.00 / aq2=0 / aq3=0
Language : English
Default : Yes
Forced : No
Color range : Limited
Matrix coefficients : BT.709

Audio #1
ID : 2
Format : AC-3
Format/Info : Audio Coding 3
Commercial name : Dolby Digital
Codec ID : A_AC3
Duration : 1 h 38 min
Bit rate mode : Constant
Bit rate : 384 kb/s
Channel(s) : 6 channels
Channel layout : L R C LFE Ls Rs
Sampling rate : 48.0 kHz
Frame rate : 31.250 FPS (1536 SPF)
Bit depth : 16 bits
Compression mode : Lossy
Stream size : 271 MiB (3%)
Title : iTunes
Language : Russian
Service kind : Complete Main
Default : Yes
Forced : Yes

Audio #2
ID : 3
Format : AC-3
Format/Info : Audio Coding 3
Commercial name : Dolby Digital
Codec ID : A_AC3
Duration : 1 h 38 min
Bit rate mode : Constant
Bit rate : 640 kb/s
Channel(s) : 6 channels
Channel layout : L R C LFE Ls Rs
Sampling rate : 48.0 kHz
Frame rate : 31.250 FPS (1536 SPF)
Bit depth : 16 bits
Compression mode : Lossy
Stream size : 452 MiB (5%)
Title : Original
Language : English
Service kind : Complete Main
Default : No
Forced : No

Text #1
ID : 4
Format : UTF-8
Codec ID : S_TEXT/UTF8
Codec ID/Info : UTF-8 Plain Text
Duration : 1 h 32 min
Bit rate : 40 b/s
Count of elements : 954
Stream size : 27.7 KiB (0%)
Title : Full
Language : English
Default : No
Forced : No

Text #2
ID : 5
Format : UTF-8
Codec ID : S_TEXT/UTF8
Codec ID/Info : UTF-8 Plain Text
Duration : 1 h 31 min
Bit rate : 45 b/s
Count of elements : 1078
Stream size : 30.3 KiB (0%)
Title : SDH
Language : English
Default : No
Forced : No

Menu
00:00:00.000 : en:Chapter 1
00:12:43.554 : en:Chapter 2
00:26:41.182 : en:Chapter 3
00:41:32.615 : en:Chapter 4
00:53:50.769 : en:Chapter 5
01:06:20.768 : en:Chapter 6
01:19:07.743 : en:Chapter 7
01:34:11.562 : en:Chapter 8
КУБКИ

СТАЖ

МЕДАЛИ
Награды:101

За помощь проекту (9) Лучший по количеству кубков (3) За отличные раздачи и качество (36) За подробное оформление раздач (5) За отличные комментарии (9) Почётный форумчанин (8) Верный Сид (27) За участие в конкурсах/играх (2)

Аватара пользователя
Тортуга
kisa1980
Главный помощник Администратора-Корсар
  • Торрент
Для скачивания торрента необходимо зарегистрироваться или войти на трекер.

Вернуться в Зарубежное кино (2011-2019 / HD Video)



Uptime по данным Ping-Admin.Ru - сервиса мониторинга доступности сайтов
Рейтинг@Mail.ru