logo
Международный русскоязычный
торрент-трекер
Menu

Doublon
Поделиться с друзьями: 
Голосуй за Корсар и получи 150 дублонов
Рейтинг торрент трекеров - UpTracker.ru

Андромеда / Andromeda / Сезон: 5 / Серии: 1-22 из 22 (2004, Фантастика, DVD-9)

Сообщение Korsar » 01 дек 2016, 18:34

Андромеда / Andromeda

Год выпуска: 2004
Страна: Канада, США
Жанр: Фантастика
Продолжительность: 42
Перевод: Профессиональный (многоголосый закадровый) СТС
Режиссёр: Питер Де Луис, Филип Дэвид Сигал, Дэвид Виннинг
В ролях: Кевин Сорбо, Лиза Райдер, Лекса Дойг, Кит Гамильтон Кобб, Лаура Бертрам, Брент Стейт, Гордон Майкл Вулветт, Стив Бакич, Себастьян Спэнс, Роджер Гросс, Найджел Беннетт, Энди Фриззелл, Джеймс Мастерс

Описание: Пятый сезон начинается с необычной предпосылки. Дилан обнаруживает себя перенесенным в систему Сифра, состоящую из девяти идентичных почти бесплодных миров с суеверным населением и двух тусклых солнц. Технологии (особенно космические полеты) избегаются, и вода является сокровищем из-за постоянной засухи. Флавин (другой Парадин) встречает Дилана здесь, давая ему загадочные намеки о судьбе Дилана и том, чем раньше являлась Сифра. В конечном счете, на Сифре Дилан находит Ницшеанского воина Телемаха Раде, пилота Беку Валентайн и инженера супер-гения Шеймуса Харпера, и к его изумлению, они все прибыли в Сифру в разное время и места жительства у них разные. В частности Харпер прибыл на три года раньше Дилана с остатками андроида Ромми.

Качество: DVD-9 (Custom)
Формат: DVD-Video
Видео: MPEG 2, NTSC, 16:9 (1.33:1), 720:480, ~7500kbps
Аудио: АС3, 48 kHz, 2/0 ch, 192Kbp (СТС)

01. Бремя, часть первая (The Weight)
02. Бремя, часть вторая (The Weight)
03. Феномен фактора страха (Phear Phactor Phenom)
04. Падение Ангела (Decay of the Angel)
05. Конец Нашего Настоящего (The Eschatology of Our Present)
06. По кругу... (When Goes Around...)
07. Попытка познания (Attempting Screed)
08. Выжженные Священные Земли (So Burn The Untamed Lands)
09. Того, что будет, не было (What Will Be Was Not)
10. Проверка (The Test)
11. Сквозь мутное стекло (Through A Glass Darkly)
12. Гордыня до беды доведет (Pride Before The Fall)
13. Тебе идет лунный свет (Moolight Becomes You)
14. Унылое прошлое (Past Is Prolix)
15. Обратная сторона привлекательности (The Opposite Of Attractiom)
16. Спасая свет от темного солнца (Saving Light From A Black Sun)
17. Вспомнив всё (Totaled Recall)
18. Бред квантового трактата (Quantum Tratate Delirium)
19. Свет еще одного дня (One More Day)
20. Хаос и его неподвижность (Chaos And The Stillness Of It)
21. Сердце пути (часть первая) (The Heart Of The Journey (Part 1))
22. Сердце пути (часть вторая) (The Heart Of The Journey (Part 2))
Title: DVD 01
Size: 7.49 Gb ( 7 855 030,00 KBytes ) - DVD-9
Enabled regions: 1, 2, 3, 4, 5, 6, 7, 8

VTS_01 :
Play Length: 00:42:52
Video: NTSC 16:9 (720x480) VBR, Auto Letterboxed
Audio:
Russian (Dolby AC3, 2 ch)

VTS_06 :
Play Length: 00:42:52
Video: NTSC 16:9 (720x480) VBR, Auto Letterboxed
Audio:
Russian (Dolby AC3, 2 ch)

VTS_12 :
Play Length: 00:42:52
Video: NTSC 16:9 (720x480) VBR, Auto Letterboxed
Audio:
Russian (Dolby AC3, 2 ch)
Полное имя : ............Andromeda DVD s05\DVD 01\VTS_01_1.VOB
Формат : MPEG-PS
Размер файла : 1024 Мбайт
Продолжительность : 22 м.
Режим общего битрейта : Переменный
Общий поток : 6397 Кбит/сек

Видео
Идентификатор : 224 (0xE0)
Формат : MPEG Video
Версия формата : Version 2
Профиль формата : Main@Main
Параметр BVOP формата : Да
Параметр матрицы формата : Выборочная
Параметр GOP формата : M=3, N=12
Структура изображения : Frame
Продолжительность : 22 м.
Вид битрейта : Переменный
Битрейт : 6078 Кбит/сек
Максимальный битрейт : 8900 Кбит/сек
Ширина : 720 пикселей
Высота : 480 пикселей
Соотношение сторон : 16:9
Частота кадров : 29,970 (30000/1001) кадров/сек
Стандарт вещания : NTSC
Цветовое пространство : YUV
Субдискретизация насыщенности : 4:2:0
Битовая глубина : 8 бит
Тип развёртки : Чересстрочная
Порядок развёртки : Верхнее поле первое
Метод сжатия : С потерями
Бит/(Пиксели*Кадры) : 0.587
Временной код первого кадра : 01:00:14;19
Оригинал временного кода : Group of pictures header
GOP, открыто/закрыто : Закрыто
Размер потока : 973 Мбайт (95%)

Аудио
Идентификатор : 189 (0xBD)-128 (0x80)
Формат : AC-3
Формат/Информация : Audio Coding 3
Профиль формата : Dolby Digital
Расширение режима : CM (complete main)
Параметр Endianness формата : Big
Режим смешивания : DVD-Video
Продолжительность : 22 м.
Вид битрейта : Постоянный
Битрейт : 192 Кбит/сек
Каналы : 2 канала
Расположение каналов : Front: L R
Частота : 48,0 КГц
Частота кадров : 31,250 кадров/сек (1536 spf)
Метод сжатия : С потерями
Размер потока : 30,7 Мбайт (3%)

Текст
Идентификатор : 224 (0xE0)-CC3
Формат : EIA-608
Режим смешивания, доп. информация : Muxed in Video #1
Вид битрейта : Постоянный
Размер потока : 0,00 байт (0%)

Меню





Боцман
Аватара пользователя
Korsar
Помощник Администратора-Корсар
 
 

Награды: 27
За помощь проекту (1) За отличные раздачи и качество (11) За подробное оформление раздач (1) За отличные комментарии (1) Верный Сид (9) За участие в конкурсах (2)
  • Торрент
Для скачивания торрента необходимо зарегистрироваться или войти на трекер.

Вернуться в Зарубежные сериалы



cron
Uptime по данным Ping-Admin.Ru - сервиса мониторинга доступности сайтов
Рейтинг@Mail.ru