logo
Международный русскоязычный
торрент-трекер
Menu
Поделиться с друзьями: 
Голосуй за Корсар и получи 500 дублонов
Рейтинг торрент трекеров - UpTracker.ru

Американский ниндзя / American Ninja (1985, боевик, мелодрама, приключения, BDRemux 1080р) | GER Transfer

Сообщение Teufel » 06 мар 2019, 19:23

Название: Американский ниндзя
Оригинальное название: American Ninja
Год выхода: 1985
Жанр: боевик, мелодрама, приключения
Режиссер: Сэм Фёрстенберг
В ролях: Майкл Дудикофф, Стив Джеймс, Джуди Аронсон, Гуч Кук, Джон Фудзиока, Дон Стюарт, Джон ЛаМотта, Тадаши Йамашита, Фил Брок, Тони Кэрреон, Берто Спор, Джерри Бэйли, Джим Гейнс, Стив Кук, Зенон Джил, Уилли Уильямс, Кристиан Хосс, Джои Гальвес, Ник Николсон, Эрик Хан, Филлип Брок, Ричард Нортон, Генри Стрцалковский

Описание: Джо Армстронг, 18-летний рядовой филиппинского отряда армии США, сопровождает военный конвой, который подвергается нападению бандитов. В одном из них Джо узнает черного воина — ниндзя. Обороняясь, он инстинктивно начинает использовать технику ниндзюцу.

Эта неожиданно проявившаяся способность вызывает подозрение у командира его отряда и остальных солдат. Распутывая паутину темных интриг, Джо остается один в битве с окружающей его коррупцией. В конце концов, в глубине непроходимых джунглей, Джо раскрывает тайну собственного прошлого, тайну, ведущую его к последнему бою со зловещим предводителем Черных Ниндзя.



Страна: США, Филиппины
Продолжительность: 01:35:53
Перевод : Профессиональный (двухголосный закадровый), авторский одноголосый


Качество: BDRemux 1080р
Видео: MPEG-4 AVC Video 35954 kbps 1080p / 23.976 fps / 16:9 / High Profile 4.1
Аудио 1: RUS / AC-3, 2.0, 48.0 kHz, 192 kb/s | двухголосный закадровый, СОЮЗ Видео
Аудио 2: RUS / AC-3, 2.0, 48.0 kHz, 192 kb/s | двухголосный закадровый, СТС
Аудио 3: RUS / AC-3, 2.0, 48.0 kHz, 192 kb/s | одноголосный закадровый, А. Гаврилов
Аудио 4: RUS / DTS, 2.0, 48.0 kHz, 1509 kb/s | одноголосный закадровый, В. Горчаков
Аудио 5: RUS / AC-3, 2.0, 48.0 kHz, 192 kb/s | одноголосный закадровый, А. Карповский
Аудио 6: RUS / AC-3, 2.0, 48.0 kHz, 192 kb/s | одноголосный закадровый, А. Готлиб
Аудио 7: UKR / AC-3, 2.0, 48.0 kHz, 192 kb/s | двухголосный закадровый, ICTV
Аудио 8: ENG / нет, DTS-HD MA, 2.0, 48.0 kHz, 24 bit, 1411,2 kb/s (core: DTS 2.0, 48 kHz, 24 bit, 768 kb/s) | оригинал


Формат : Matroska
Версия формата : Version 4 / Version 2
Размер файла : 26,7 Гбайт
Продолжительность : 1 ч. 35 м.
Общий поток : 39,8 Мбит/сек
Название фильма : American Ninja - 1985 / BDRemux
Дата кодирования : UTC 2019-01-04 11:10:52
Программа кодирования : mkvmerge v29.0.0 ('Like It Or Not') 64-bit
Библиотека кодирования : libebml v1.3.6 + libmatroska v1.4.9
Обложка : Yes
Attachments : cover.jpg / cover.jpg

Видео
Идентификатор : 1
Формат : AVC
Формат/Информация : Advanced Video Codec
Профиль формата : High@L4.1
Параметр CABAC формата : Да
Параметр RefFrames формата : 4 кадра
Идентификатор кодека : V_MPEG4/ISO/AVC
Продолжительность : 1 ч. 35 м.
Вид битрейта : Постоянный
Битрейт : 36,0 Мбит/сек
Ширина : 1920 пикселей
Высота : 1080 пикселей
Соотношение сторон : 16:9
Режим частоты кадров : Постоянный
Частота кадров : 23,976 (24000/1001) кадра/сек
Стандарт вещания : NTSC
Цветовое пространство : YUV
Субдискретизация насыщенности : 4:2:0
Битовая глубина : 8 бит
Тип развёртки : Прогрессивная
Бит/(Пиксели*Кадры) : 0.724
Размер потока : 24,0 Гбайт (90%)
Заголовок : American Ninja - 1985 / BDRemux - by
Default : Да
Forced : Нет
Цветовой диапазон : Limited
Основные цвета : BT.709
Характеристики трансфера : BT.709
Коэффициенты матрицы : BT.709

Аудио #1
Идентификатор : 2
Формат : AC-3
Формат/Информация : Audio Coding 3
Параметр Endianness формата : Big
Идентификатор кодека : A_AC3
Продолжительность : 1 ч. 35 м.
Вид битрейта : Постоянный
Битрейт : 192 Кбит/сек
Каналы : 2 канала
Расположение каналов : Front: L R
Частота : 48,0 КГц
Частота кадров : 31,250 кадров/сек (1536 SPF)
Битовая глубина : 16 бит
Метод сжатия : С потерями
Размер потока : 132 Мбайт (0%)
Заголовок : двухголосый закадровый, СОЮЗ Видео
Язык : Russian
ServiceKind: Complete Main
Default : Да
Forced : Нет

Аудио #2
Идентификатор : 3
Формат : AC-3
Формат/Информация : Audio Coding 3
Параметр Endianness формата : Big
Идентификатор кодека : A_AC3
Продолжительность : 1 ч. 35 м.
Вид битрейта : Постоянный
Битрейт : 192 Кбит/сек
Каналы : 2 канала
Расположение каналов : Front: L R
Частота : 48,0 КГц
Частота кадров : 31,250 кадров/сек (1536 SPF)
Битовая глубина : 16 бит
Метод сжатия : С потерями
Размер потока : 132 Мбайт (0%)
Заголовок : двухголосый закадровый, СТС
Язык : Russian
ServiceKind: Complete Main
Default : Нет
Forced : Нет

Аудио #3
Идентификатор : 4
Формат : AC-3
Формат/Информация : Audio Coding 3
Параметр Endianness формата : Big
Идентификатор кодека : A_AC3
Продолжительность : 1 ч. 35 м.
Вид битрейта : Постоянный
Битрейт : 192 Кбит/сек
Каналы : 2 канала
Расположение каналов : Front: L R
Частота : 48,0 КГц
Частота кадров : 31,250 кадров/сек (1536 SPF)
Битовая глубина : 16 бит
Метод сжатия : С потерями
Размер потока : 132 Мбайт (0%)
Заголовок : одноголосый закадровый, А. Гаврилов
Язык : Russian
ServiceKind: Complete Main
Default : Нет
Forced : Нет

Аудио #4
Идентификатор : 5
Формат : DTS
Формат/Информация : Digital Theater Systems
Режим : 16
Параметр Endianness формата : Big
Идентификатор кодека : A_DTS
Продолжительность : 1 ч. 35 м.
Вид битрейта : Постоянный
Битрейт : 1509 Кбит/сек
Каналы : 2 канала
Расположение каналов : Front: L R
Частота : 48,0 КГц
Частота кадров : 93,750 кадра/сек (512 SPF)
Битовая глубина : 24 бит
Метод сжатия : С потерями
Размер потока : 1,01 Гбайт (4%)
Заголовок : одноголосый закадровый, В. Горчаков
Язык : Russian
Default : Нет
Forced : Нет

Аудио #5
Идентификатор : 6
Формат : AC-3
Формат/Информация : Audio Coding 3
Параметр Endianness формата : Big
Идентификатор кодека : A_AC3
Продолжительность : 1 ч. 35 м.
Вид битрейта : Постоянный
Битрейт : 192 Кбит/сек
Каналы : 2 канала
Расположение каналов : Front: L R
Частота : 48,0 КГц
Частота кадров : 31,250 кадров/сек (1536 SPF)
Битовая глубина : 16 бит
Метод сжатия : С потерями
Размер потока : 132 Мбайт (0%)
Заголовок : одноголосый закадровый, А. Карповский
Язык : Russian
ServiceKind: Complete Main
Default : Нет
Forced : Нет

Аудио #6
Идентификатор : 7
Формат : AC-3
Формат/Информация : Audio Coding 3
Параметр Endianness формата : Big
Идентификатор кодека : A_AC3
Продолжительность : 1 ч. 35 м.
Вид битрейта : Постоянный
Битрейт : 192 Кбит/сек
Каналы : 2 канала
Расположение каналов : Front: L R
Частота : 48,0 КГц
Частота кадров : 31,250 кадров/сек (1536 SPF)
Битовая глубина : 16 бит
Метод сжатия : С потерями
Размер потока : 131 Мбайт (0%)
Заголовок : одноголосый закадровый, А. Готлиб
Язык : Russian
ServiceKind: Complete Main
Default : Нет
Forced : Нет

Аудио #7
Идентификатор : 8
Формат : AC-3
Формат/Информация : Audio Coding 3
Параметр Endianness формата : Big
Идентификатор кодека : A_AC3
Продолжительность : 1 ч. 35 м.
Вид битрейта : Постоянный
Битрейт : 192 Кбит/сек
Каналы : 2 канала
Расположение каналов : Front: L R
Частота : 48,0 КГц
Частота кадров : 31,250 кадров/сек (1536 SPF)
Битовая глубина : 16 бит
Метод сжатия : С потерями
Размер потока : 132 Мбайт (0%)
Заголовок : двухголосый закадровый, ICTV
Язык : Ukrainian
ServiceKind: Complete Main
Default : Нет
Forced : Нет

Аудио #8
Идентификатор : 9
Формат : DTS
Формат/Информация : Digital Theater Systems
Профиль формата : MA / Core
Режим : 16
Параметр Endianness формата : Big
Идентификатор кодека : A_DTS
Продолжительность : 1 ч. 35 м.
Вид битрейта : Переменный / Постоянный
Битрейт : 1411,2 Кбит/сек / 768 Кбит/сек
Каналы : 2 канала
Расположение каналов : Front: L R
Частота : 48,0 КГц
Частота кадров : 93,750 кадра/сек (512 SPF)
Битовая глубина : 24 бит
Метод сжатия : Без потерь / Lossy
Размер потока : 961 Мбайт (4%)
Заголовок : оригинал
Язык : English
Default : Нет
Forced : Нет

Текст #1
Идентификатор : 10
Формат : UTF-8
Идентификатор кодека : S_TEXT/UTF8
Идентификатор кодека/Информация : UTF-8 Plain Text
Продолжительность : 1 ч. 31 м.
Битрейт : 55 бит/сек
ElementCount : 682
Размер потока : 37,2 Кбайт (0%)
Заголовок : русские
Язык : Russian
Default : Нет
Forced : Нет

Текст #2
Идентификатор : 11
Формат : UTF-8
Идентификатор кодека : S_TEXT/UTF8
Идентификатор кодека/Информация : UTF-8 Plain Text
Продолжительность : 1 ч. 31 м.
Битрейт : 39 бит/сек
ElementCount : 682
Размер потока : 26,1 Кбайт (0%)
Заголовок : английские
Язык : English
Default : Нет
Forced : Нет

Текст #3
Идентификатор : 12
Формат : UTF-8
Идентификатор кодека : S_TEXT/UTF8
Идентификатор кодека/Информация : UTF-8 Plain Text
Продолжительность : 1 ч. 31 м.
Битрейт : 38 бит/сек
ElementCount : 677
Размер потока : 25,6 Кбайт (0%)
Заголовок : немецкие
Язык : German
Default : Нет
Forced : Нет

Меню #1
00:00:00.000 : en:00:00:00.000
00:07:59.854 : en:00:07:59.854
00:16:01.002 : en:00:16:01.002
00:23:00.921 : en:00:23:00.921
00:33:39.267 : en:00:33:39.267
00:39:07.136 : en:00:39:07.136
00:48:41.168 : en:00:48:41.168
00:56:33.098 : en:00:56:33.098
01:05:39.435 : en:01:05:39.435
01:11:54.560 : en:01:11:54.560
01:19:42.152 : en:01:19:42.152
01:27:38.837 : en:01:27:38.837
КУБКИ

СТАЖ

МЕДАЛИ
Награды:25

Лучший по количеству кубков (2) За отличные раздачи и качество (13) За подробное оформление раздач (1) Почётный форумчанин (1) Верный Сид (5)

Аватара пользователя
Teufel
Уважаемый Релизёр-Корсар
  • Торрент
Для скачивания торрента необходимо зарегистрироваться или войти на трекер.

Сообщение filbi1976 » 06 мар 2019, 20:11

Ностальгия по видео салонам. :10 balov: :bajan:
The Show Must Go On
Посмотреть товар в профиле пользователя

Нажмите на изображение, чтобы увидеть в полный размер  
1 шт.
Нажмите на изображение, чтобы увидеть в полный размер  
1 шт.
Нажмите на изображение, чтобы увидеть в полный размер  
1 шт.
Нажмите на изображение, чтобы увидеть в полный размер  
1 шт.
Нажмите на изображение, чтобы увидеть в полный размер  
1 шт.
Нажмите на изображение, чтобы увидеть в полный размер  
1 шт.
Нажмите на изображение, чтобы увидеть в полный размер  
1 шт.
Нажмите на изображение, чтобы увидеть в полный размер  
1 шт.
Нажмите на изображение, чтобы увидеть в полный размер  
1 шт.
Нажмите на изображение, чтобы увидеть в полный размер  
1 шт.
Нажмите на изображение, чтобы увидеть в полный размер  
1 шт.
Нажмите на изображение, чтобы увидеть в полный размер  
1 шт.
Нажмите на изображение, чтобы увидеть в полный размер  
1 шт.
Нажмите на изображение, чтобы увидеть в полный размер  
1 шт.
Нажмите на изображение, чтобы увидеть в полный размер  
1 шт.
КУБКИ

СТАЖ

МЕДАЛИ
Награды:174

За активную помощь проекту (5) Лучший по количеству кубков (1) За отличные раздачи и качество (114) За подробное оформление раздач (4) За отличные комментарии (8) Почётный форумчанин (3) Верный Сид (35) За участие в конкурсах/играх (2) 3 место в конкурсах/играх (1)

Аватара пользователя
Тортуга
filbi1976
Администратор-Корсар

Сообщение poletov » 01 авг 2020, 13:01

Отличный боевик,на самом деле боевой,много схваток,притом зрелищных,но мы все равно победим.Рекомендую фильм к просмотру и желаю всем приятного просмотра.
КУБКИ

СТАЖ

МЕДАЛИ
Награды:21

За отличные раздачи и качество (1) За отличные комментарии (17) Почётный форумчанин (2) Верный Сид (1)

Аватара пользователя
Russia
poletov
Заслуженный Корсар


Вернуться в Зарубежное кино (1981-1990 / HD Video)



Рейтинг@Mail.ru