logo
Международный русскоязычный
торрент-трекер
Menu

Doublon
Поделиться с друзьями: 
Голосуй за Корсар и получи 150 дублонов
Рейтинг торрент трекеров - UpTracker.ru

Американская готика / American Gothic / Сезон 1 / Серии 1-13 (13) (2016, детектив,триллер, HDTVrip 720p)

Сообщение Korsar » 01 дек 2016, 17:42


Американская готика / American Gothic
Год выпуска • 2016
Страна • США
Жанр • детектив,триллер
Продолжительность • ~44 мин.
Перевод• Профессиональный (многоголосый, закадровый) "OMSKBIRD records"

Режиссёр • Джеймс Фрей
В ролях • Джастин Чэтвин, Меган Кетч, Энтони Старр, Джульет Райлэнс, Стефани Леонидас, Габриел Бейтмен и др.
Описание • Сюжет сериала разворачивается вокруг семейства Хоторнов — одного из самых богатых и влиятельных семейных кланов Бостона. После гибели главы семейства его члены узнают что к этой смерти был причастен серийный убийца. Это открытие порождает ожесточенную борьбу за влияние внутри клана, а родственники убитого начинают подозревать друг друга, опасаясь, что кто-то из них мог быть сообщником убийцы.
ПереводНиколай Исаков
Роли озвучивалиПолина Касаткина, Станислав Черсков, Владислав Данилов, Павел Ярощик
ЗвукорежиссерПавел Квентов
ПостерКсения Просветова
Релиз подготовилGater

Качество: HDTVrip 720p
Формат: MKV
Видео: MPEG-4 AVC / ~ 2000 kbps / 1280:720p / 23.976 fps / 16:9 / ~ 0.090 bit/pixel / High Level 4.1
Аудио:
Русский / Dolby Digital 5.1 / 48 kHz / 384 kbps
English / Dolby Digital 5.1 / 48 kHz / 384 kbps
Субтитры:нет





General
Unique ID : 207394212072581160486568786861320474359 (0x9C06AC1DF886362DBA181B1E96C28EF7)
Complete name : F:\Мои Документы\Видео\РАЗДАЧИ\Готика\American Gothic S01 HDTV 720p (OMSKBIRD)\American Gothic S01E01 HDTV 720p (OMSKBIRD).mkv
Format : Matroska
Format version : Version 2
File size : 836 MiB
Duration : 41mn 10s
Overall bit rate : 2 839 Kbps
Encoded date : UTC 2016-06-23 20:33:04
Writing application : mkvmerge v4.0.0 ('The Stars were mine') сборка от Jun 6 2010 16:18:42
Writing library : libebml v1.0.0 + libmatroska v1.0.0
Video
ID : 1
Format : AVC
Format/Info : Advanced Video Codec
Format profile : High@L4.1
Format settings, CABAC : Yes
Format settings, ReFrames : 9 frames
Codec ID : V_MPEG4/ISO/AVC
Duration : 41mn 10s
Bit rate : 2 015 Kbps
Width : 1 280 pixels
Height : 720 pixels
Display aspect ratio : 16:9
Frame rate : 23.976 fps
Color space : YUV
Chroma subsampling : 4:2:0
Bit depth : 8 bits
Scan type : Progressive
Bits/(Pixel*Frame) : 0.091
Stream size : 593 MiB (71%)
Writing library : x264 core 148 r2705 3f5ed56
Encoding settings : cabac=1 / ref=9 / deblock=1:-2:-2 / analyse=0x3:0x133 / me=umh / subme=10 / psy=1 / psy_rd=1.00:0.00 / mixed_ref=1 / me_range=32 / chroma_me=1 / trellis=2 / 8x8dct=1 / cqm=0 / deadzone=21,11 / fast_pskip=0 / chroma_qp_offset=-2 / threads=16 / lookahead_threads=1 / sliced_threads=0 / nr=0 / decimate=1 / interlaced=0 / bluray_compat=0 / constrained_intra=0 / bframes=5 / b_pyramid=2 / b_adapt=2 / b_bias=0 / direct=3 / weightb=1 / open_gop=0 / weightp=2 / keyint=250 / keyint_min=23 / scenecut=40 / intra_refresh=0 / rc_lookahead=60 / rc=crf / mbtree=1 / crf=18.0 / qcomp=0.60 / qpmin=0 / qpmax=69 / qpstep=4 / ip_ratio=1.40 / aq=1:1.00
Language : English
Default : No
Forced : No
Matrix coefficients : BT.709-5, BT.1361, IEC 61966-2-4 709, SMPTE RP177

Audio #1
ID : 2
Format : AC-3
Format/Info : Audio Coding 3
Mode extension : CM (complete main)
Format settings, Endianness : Big
Codec ID : A_AC3
Duration : 41mn 10s
Bit rate mode : Constant
Bit rate : 384 Kbps
Channel(s) : 6 channels
Channel positions : Front: L C R, Side: L R, LFE
Sampling rate : 48.0 KHz
Bit depth : 16 bits
Compression mode : Lossy
Stream size : 113 MiB (14%)
Language : Russian
Default : Yes
Forced : No

Audio #2
ID : 3
Format : AC-3
Format/Info : Audio Coding 3
Mode extension : CM (complete main)
Format settings, Endianness : Big
Codec ID : A_AC3
Duration : 41mn 10s
Bit rate mode : Constant
Bit rate : 384 Kbps
Channel(s) : 6 channels
Channel positions : Front: L C R, Side: L R, LFE
Sampling rate : 48.0 KHz
Bit depth : 16 bits
Compression mode : Lossy
Stream size : 113 MiB (14%)
Default : No
Forced : No


Боцман
Аватара пользователя
Korsar
Заслуженный Корсар-Вип+
 
 

Награды: 32
За помощь проекту (2) Лучший по количеству кубков (2) За отличные раздачи и качество (13) За подробное оформление раздач (1) За отличные комментарии (1) Верный Сид (11) За участие в конкурсах/играх (2)
  • Торрент
Для скачивания торрента необходимо зарегистрироваться или войти на трекер.

Вернуться в Зарубежные сериалы (HD Video)



Uptime по данным Ping-Admin.Ru - сервиса мониторинга доступности сайтов
Рейтинг@Mail.ru