Korsar.tv - Скачать торрент - Амаркорд / Amarcord (1973, драма, комедия, BDRip-AVC)
logo
Международный русскоязычный
торрент-трекер
Menu

Doublon
Поделиться с друзьями: 
Голосуй за Корсар и получи 150 дублонов
Рейтинг торрент трекеров - UpTracker.ru

Амаркорд / Amarcord (1973, драма, комедия, BDRip-AVC)

Сообщение kisa1980 » 13 мар 2018, 20:16

Название: Амаркорд
Оригинальное название: Amarcord
Год выхода: 1973
Жанр: Драма, комедия
Страна: Италия, Франция
Студия: F.C. Produzioni, PECF
Продолжительность: 02:03:53
Перевод: Профессиональный многоголосый
Режиссер: Федерико Феллини
В ролях: Пупелла Маджио, Армандо Бранча, Магали Ноэль, Чиччо Инграссия, Нандо Орфеи, Луиджи Росси, Бруно Занин, Джанфилиппо Каркано, Жозиан Танцилли, Мария Антониетта Белуццо, Ферруччо Брембилла, Антонино Фаа Ди Бруно, Фердинандо Виллелла, Аристиде Капорале, Марчелло Ди Фалько, Стефано Пройетти, Альваро Витали, Фернандо Де Фелис, Бруно Ленци, Джанфранко Маррокко, Дина Адорни, Марчелло Бонини Олас

О фильме: Элегантная синьора в красном - объект всеобщего вожделения и восхищения, пышногрудая хозяйка табачной лавки, царящая в фантазиях мальчиков-подростков... Эти и многие другие замечательные эпизоды воскрешают в памяти легендарного мастера кино и оживают на экране, чтобы показать нам призрачный мир прошлого глазами взрослеющего пятнадцатилетнего подростка. «Амаркорд» на романьольском диалекте курортного городка Римини, где вырос Феллини, означает «Я вспоминаю». Действие этой ностальгической картины происходит в итальянской провинции в 30-х годах XX века во времена фашистской диктатуры Муссолини. Гормоны бурлят в юных телах подростков. Семья, церковь и дружба — незыблемые основы быта и жизни горожан. На улицах развешаны гигантские портреты великого дуче. Секс царит на каждом углу. И жизнь, которую демонстрируют в местном кинотеатре, принимается за эталон реальной жизни.



Качество: BDRip-AVC
Видео: MPEG-4 AVC, 3494 Kбит/с, 1024x552, 23.976 кадр/с
Аудио 1: AC3, 2 ch, 192 Кбит/с | MVO, т/к Культура
Аудио 2: AC3, 2 ch, 192 Кбит/с | MVO, Film Prestige
Аудио 3: AC3, 1 ch, 192 Кбит/с | Итальянский
Субтитры: Русские, английские


Общее
Уникальный идентификатор : 244470828438703046759252045811031336590 (0xB7EB5E705B48864797DCC48CC2E1E68E)
Полное имя : Amarcord.1973.BDRip.AVC.mkv
Формат : Matroska
Версия формата : Version 4 / Version 2
Размер файла : 3,52 Гбайт
Продолжительность : 2 ч. 3 м.
Общий поток : 4073 Кбит/сек
Название фильма : Amarcord.1973.BDRip.AVC by Koenig
Дата кодирования : UTC 2018-03-12 11:05:43
Программа кодирования : mkvmerge v12.0.0 ('Trust / Lust') 32bit
Библиотека кодирования : libebml v1.3.4 + libmatroska v1.4.5
Обложка : Yes
Attachments : cover.jpg

Видео
Идентификатор : 1
Формат : AVC
Формат/Информация : Advanced Video Codec
Профиль формата : High@L4.1
Параметр CABAC формата : Да
Параметр ReFrames формата : 11 кадров
Идентификатор кодека : V_MPEG4/ISO/AVC
Продолжительность : 2 ч. 3 м.
Битрейт : 3494 Кбит/сек
Ширина : 1024 пикселя
Высота : 552 пикселя
Соотношение сторон : 1,85:1
Режим частоты кадров : Постоянный
Частота кадров : 23,976 кадра/сек
Цветовое пространство : YUV
Субдискретизация насыщенности : 4:2:0
Битовая глубина : 8 бит
Тип развёртки : Прогрессивная
Бит/(Пиксели*Кадры) : 0.258
Размер потока : 3,02 Гбайт (86%)
Заголовок : Amarcord.1973.BDRip.AVC
Библиотека кодирования : x264 core 152 r2851 ba24899
Настройки программы : cabac=1 / ref=11 / deblock=1:-3:-3 / analyse=0x3:0x133 / me=umh / subme=10 / psy=1 / psy_rd=1.02:0.10 / mixed_ref=1 / me_range=32 / chroma_me=1 / trellis=2 / 8x8dct=1 / cqm=0 / deadzone=21,11 / fast_pskip=0 / chroma_qp_offset=-3 / threads=3 / lookahead_threads=1 / sliced_threads=0 / nr=0 / decimate=1 / interlaced=0 / bluray_compat=0 / constrained_intra=0 / bframes=11 / b_pyramid=2 / b_adapt=2 / b_bias=0 / direct=3 / weightb=1 / open_gop=0 / weightp=2 / keyint=240 / keyint_min=23 / scenecut=40 / intra_refresh=0 / rc_lookahead=40 / rc=2pass / mbtree=1 / bitrate=3494 / ratetol=1.0 / qcomp=0.60 / qpmin=10 / qpmax=51 / qpstep=4 / cplxblur=20.0 / qblur=0.5 / vbv_maxrate=50000 / vbv_bufsize=62500 / nal_hrd=none / filler=0 / ip_ratio=1.40 / aq=1:1.00
Default : Да
Forced : Нет

Аудио #1
Идентификатор : 2
Формат : AC-3
Формат/Информация : Audio Coding 3
Параметр Endianness формата : Big
Идентификатор кодека : A_AC3
Продолжительность : 2 ч. 3 м.
Вид битрейта : Постоянный
Битрейт : 192 Кбит/сек
Каналы : 2 канала
Расположение каналов : Front: L R
Частота : 48,0 КГц
Частота кадров : 31,250 кадров/сек (1536 spf)
Битовая глубина : 16 бит
Метод сжатия : С потерями
Размер потока : 170 Мбайт (5%)
Заголовок : MVO - Культура
Язык : Russian
ServiceKind/String : Complete Main
Default : Да
Forced : Нет

Аудио #2
Идентификатор : 3
Формат : AC-3
Формат/Информация : Audio Coding 3
Параметр Endianness формата : Big
Идентификатор кодека : A_AC3
Продолжительность : 2 ч. 3 м.
Вид битрейта : Постоянный
Битрейт : 192 Кбит/сек
Каналы : 2 канала
Расположение каналов : Front: L R
Частота : 48,0 КГц
Частота кадров : 31,250 кадров/сек (1536 spf)
Битовая глубина : 16 бит
Метод сжатия : С потерями
Размер потока : 170 Мбайт (5%)
Заголовок : MVO - Film Prestige
Язык : Russian
ServiceKind/String : Complete Main
Default : Нет
Forced : Нет

Аудио #3
Идентификатор : 4
Формат : AC-3
Формат/Информация : Audio Coding 3
Параметр Endianness формата : Big
Идентификатор кодека : A_AC3
Продолжительность : 2 ч. 3 м.
Вид битрейта : Постоянный
Битрейт : 192 Кбит/сек
Каналы : 1 канал
Расположение каналов : Front: C
Частота : 48,0 КГц
Частота кадров : 31,250 кадров/сек (1536 spf)
Битовая глубина : 16 бит
Метод сжатия : С потерями
Размер потока : 170 Мбайт (5%)
Заголовок : Original
Язык : Italian
ServiceKind/String : Complete Main
Default : Нет
Forced : Нет

Текст #1
Идентификатор : 5
Формат : UTF-8
Идентификатор кодека : S_TEXT/UTF8
Идентификатор кодека/Информация : UTF-8 Plain Text
Продолжительность : 2 ч. 3 м.
Битрейт : 84 бит/сек
ElementCount : 1254
Размер потока : 76,3 Кбайт (0%)
Язык : Russian
Default : Да
Forced : Нет

Текст #2
Идентификатор : 6
Формат : UTF-8
Идентификатор кодека : S_TEXT/UTF8
Идентификатор кодека/Информация : UTF-8 Plain Text
Продолжительность : 2 ч. 1 м.
Битрейт : 43 бит/сек
ElementCount : 1239
Размер потока : 39,0 Кбайт (0%)
Язык : English
Default : Нет
Forced : Нет

Меню
00:00:00.000 : en:Logos/Credits
00:02:19.556 : en:Puffballs
00:04:39.445 : en:Burning the Witch of Winter
00:09:51.799 : en:Smoldering in the Ashes
00:11:43.994 : en:The Lawyer
00:13:23.052 : en:The School
00:21:17.651 : en:Volpina and Poetry
00:23:30.992 : en:Table Mannerisms
00:30:43.591 : en:Following Gradisca's Derriere
00:35:04.143 : en:Touching Confessions
00:40:52.533 : en:Parading Fascists
00:46:40.672 : en:"The Internationale"
00:50:17.347 : en:"Something to Drink?"
00:56:00.774 : en:The Grand Hotel
01:04:38.749 : en:Il Bel Mondo Cha Cha Cha
01:07:48.064 : en:Uncle Teo
01:14:47.691 : en:"I Want a Woman!"
01:22:53.259 : en:Il Rex
01:29:55.390 : en:Floating in the Fog
01:38:04.211 : en:An Uplifting Experience
01:44:01.235 : en:Snowfall
01:48:47.604 : en:A Visit to the Hospital
01:50:35.670 : en:The Peacock
01:52:24.863 : en:The Funeral
01:58:12.251 : en:Gradisca Finds Her Gary Cooper
Аватара пользователя
kisa1980
Главный помощник Администратора-Корсар
 
 

Награды: 46
За помощь проекту (7) Лучший по количеству кубков (3) За отличные раздачи и качество (15) За подробное оформление раздач (4) За отличные комментарии (4) Почётный форумчанин (2) Верный Сид (7) За участие в конкурсах/играх (2)
  • Торрент
Для скачивания торрента необходимо зарегистрироваться или войти на трекер.

Сообщение Abram » 13 мар 2018, 20:44

С самого начала фильм, когда звучит музыка Нино Рота и зритель видит, как написаны буквы названия фильма, он уже понимает, что его ждет что-то сумашедшее и очень интересное.
Аватара пользователя
Abram
Уважаемый Релизёр-Корсар
 
 

Награды: 31
Лучший по количеству кубков (5) За отличные раздачи и качество (14) За подробное оформление раздач (2) За отличные комментарии (5) Почётный форумчанин (2) Верный Сид (1)


Вернуться в Классика зарубежного кино (фильмы до 1980 года)



Uptime по данным Ping-Admin.Ru - сервиса мониторинга доступности сайтов
Рейтинг@Mail.ru