logo
Международный русскоязычный
торрент-трекер
Menu

Doublon
Поделиться с друзьями: 
Голосуй за Корсар и получи 100 дублонов
Рейтинг торрент трекеров - UpTracker.ru

Алькатрас / Alcatraz / Сезон: 1 / Серии: 1-13 (13) (2012, Триллер, WEB-DL 720p)

Сообщение Korsar » 01 дек 2016, 17:05

Алькатрас / Alcatraz

Год выпуска • 2012
Страна • США
Жанр • Триллер
Режиссёр • Брэд Андерсон, Джек Бендер, Дэнни Кэннон
В ролях • Джонатан Койн, Сэмюэл Патрик Чу, Хорхе Гарсиа, Сара Джонс, Джеффри Пирс, Дэвид Хофлин, Joe Egender, Джинэнн Гуссен, Сэм Нил, Джеймс Бэмфорд, и др.

Описание • История доктора Диего Сото, лучшего в мире знатока самой знаменитой американской тюрьмы «Алькатрас», расположенной на острове у берегов Сан-Франциско. Сото предстоит разгадать тайну, связанную с загадочным исчезновением заключенных и охранников «Алькатраса» много лет назад и неожиданным их появлением в уже недействующей тюрьме (она была закрыта в 1963 году) в наши дни.

ПереводИнга Бу
Озвучание • Профессиональный (двухголосый, закадровый) Студия « Кубик в Кубе »
Продолжительность: ~ 44 Мин.
Качество: WEB-DL 720p
Формат: MKV
Видео: MPEG-4 AVC / 3742 kbps / 1280:720p / 23.976 fps / 16:9 / 0.169 bit/pixel / High Level 3.1
Аудио:
Русский / Dolby Digital 5.1 / 48 kHz / 384 kbps
English / Dolby Digital 5.1 / 48 kHz / 384 kbps
Субтитры:
Русские (Полные) / English (Full)



Общее
Уникальный идентификатор : 217599658466552227111991393560563630138 (0xA3B42B78DBFC4932838B1DDAC63D403A)
Полное имя : C:\Documents and Settings\Admin\Мои документы\Мои видеозаписи\фильмы\Моё\Констракшн\Алькатрас\Alcatraz S01 WEB-DL 720p (DD 5.1 Кубик в Кубе)\Alcatraz S01E01 WEB-DL 720p (DD 5.1 Кубик в Кубе).mkv
Формат : Matroska
Размер файла : 1,43 Гбайт
Продолжительность : 44 м.
Общий поток : 4602 Кбит/сек
Дата кодирования : UTC 2012-01-16 19:55:27
Программа кодирования : mkvmerge v4.0.0 ('The Stars were mine') сборка от Jun 6 2010 16:18:42
Библиотека кодирования : libebml v1.0.0 + libmatroska v1.0.0
Видео
Идентификатор : 1
Формат : AVC
Формат/Информация : Advanced Video Codec
Профиль формата : High@L3.1
Параметр CABAC формата : Нет
Параметр ReFrames формата : 2 кадры
Идентификатор кодека : V_MPEG4/ISO/AVC
Продолжительность : 44 м.
Битрейт : 3742 Кбит/сек
Ширина : 1280 пикс.
Высота : 720 пикс.
Соотношение сторон : 16:9
Частота кадров : 23,976 кадр/сек
Цветовое пространство : YUV
Подвыборка цветности : 4:2:0
Битовая глубина : 8 бит
Тип развёртки : Прогрессивная
Бит/(Пиксели*Кадры) : 0.169
Размер потока : 1,16 Гбайт (81%)
Язык : English
Основные цвета : BT.709-5, BT.1361, IEC 61966-2-4, SMPTE RP177
Характеристики трансфера : BT.709-5, BT.1361
Коэффициенты матрицы : BT.709-5, BT.1361, IEC 61966-2-4 709, SMPTE RP177

Аудио #1
Идентификатор : 2
Формат : AC-3
Формат/Информация : Audio Coding 3
Расширение режима : CM (complete main)
Идентификатор кодека : A_AC3
Продолжительность : 44 м.
Вид битрейта : Постоянный
Битрейт : 384 Кбит/сек
Канал(ы) : 6 канала(ов)
Расположение каналов : Front: L C R, Side: L R, LFE
Частота : 48,0 КГц
Битовая глубина : 16 бит
Метод сжатия : С потерями
Размер потока : 122 Мбайт (8%)
Язык : Russian

Аудио #2
Идентификатор : 3
Формат : AC-3
Формат/Информация : Audio Coding 3
Расширение режима : CM (complete main)
Идентификатор кодека : A_AC3
Продолжительность : 44 м.
Вид битрейта : Постоянный
Битрейт : 384 Кбит/сек
Канал(ы) : 6 канала(ов)
Расположение каналов : Front: L C R, Side: L R, LFE
Частота : 48,0 КГц
Битовая глубина : 16 бит
Метод сжатия : С потерями
Размер потока : 122 Мбайт (8%)
Язык : English

Текст #1
Идентификатор : 4
Формат : UTF-8
Идентификатор кодека : S_TEXT/UTF8
Идентификатор кодека/Информация : UTF-8 Plain Text
Язык : Russian

Текст #2
Идентификатор : 5
Формат : UTF-8
Идентификатор кодека : S_TEXT/UTF8
Идентификатор кодека/Информация : UTF-8 Plain Text
Язык : English


Боцман
Аватара пользователя
Korsar
Помощник Администратора-Корсар
 
 

Награды: 19
За помощь проекту (1) За отличные раздачи и качество (9) Верный Сид (6) За участие в конкурсах (2)
  • Торрент
Для скачивания торрента необходимо зарегистрироваться или войти на трекер.

Вернуться в Зарубежные сериалы (HD Video)



Uptime по данным Ping-Admin.Ru - сервиса мониторинга доступности сайтов
Рейтинг@Mail.ru