logo
Международный русскоязычный
торрент-трекер
Menu
"Бунт на корабле", за скачанные торрент-файлы дублоны не снимаются. Возможность оплачена пользователем filbi1976.
Doublon
Поделиться с друзьями: 
Голосуй за Корсар и получи 500 дублонов
Рейтинг торрент трекеров - UpTracker.ru

АлисА - Эксцесс (2016, Hard Rock, FLAC)

Сообщение likko » 11 янв 2017, 10:45



АлисА - Эксцесс

Жанр: Hard Rock
Производитель диска: Россия
Год выхода альбома / издан на CD: 2016 / 2016
Издатель, номер по каталогу: К.Кинчев. Авторское издание при финансовой поддержке поклонников творчества группы "АлисА". Без каталожного номера.
Аудиокодек: FLAC (*.flac)
Тип рипа: image+.cue
Битрейт аудио: lossless
Продолжительность: 0:56:02
Источник: ley-barmaley / lossless-galaxy
Сканирование: full scans (JPG, 300dpi)

1. Эксцесс
2. Новый мир
3. Колобок
4. За полдня до весны
5. Шлак
6. Дайте каплю огня
7. Нае@али
8. Дети последних дней
9. Rock'n'Roll жесток
10. Трибунал любви
11. Полёт
12. Емеля
Код: Выделить всё
Exact Audio Copy V1.0 beta 3 from 29. August 2011

Отчёт EAC об извлечении, выполненном 2. ноября 2016, 15:00

АлисА / Эксцесс

Дисковод: ASUS    DRW-1814BL   Adapter: 0  ID: 0

Режим чтения                 : Достоверность
Использование точного потока : Да
Отключение кэша аудио        : Да
Использование указателей C2  : Нет

Коррекция смещения при чтении                     : 6
Способность читать области Lead-in и Lead-out     : Нет
Заполнение пропущенных сэмплов тишиной            : Да
Удаление блоков с тишиной в начале и конце        : Нет
При вычислениях CRC использовались нулевые сэмплы : Да
Интерфейс                                         : Встроенный Win32-интерфейс для Win NT/2000

Выходной формат : Внутренние WAV-операции
Формат сэмплов  : 44.100 Гц; 16 бит; стерео

TOC извлечённого CD

     Трек |   Старт  | Длительность | Начальный сектор | Конечный сектор
    ---------------------------------------------------------------------
       1  |  0:00.00 |    6:02.30   |           0      |      27179
       2  |  6:02.30 |    4:07.32   |       27180      |      45736
       3  | 10:09.62 |    4:50.23   |       45737      |      67509
       4  | 15:00.10 |    3:27.12   |       67510      |      83046
       5  | 18:27.22 |    3:33.55   |       83047      |      99076
       6  | 22:01.02 |    4:38.23   |       99077      |     119949
       7  | 26:39.25 |    3:40.65   |      119950      |     136514
       8  | 30:20.15 |    4:05.31   |      136515      |     154920
       9  | 34:25.46 |    4:34.65   |      154921      |     175535
      10  | 39:00.36 |    5:49.47   |      175536      |     201757
      11  | 44:50.08 |    6:11.72   |      201758      |     229654
      12  | 51:02.05 |    5:00.24   |      229655      |     252178

Характеристики диапазона извлечения и сообщения об ошибках

Выбранный диапазон

     Имя файла G:\ley-barmaley\lossless-galaxy.ru\АлисА - Эксцесс.wav

     Пиковый уровень 100.0 %
     Скорость извлечения 4.4 X
     Качество диапазона 100.0 %
     CRC теста AF01BAF3
     CRC копии AF01BAF3
     Копирование... OK

Ошибок не произошло

AccurateRip: сводка

Трек  1  отсутствует в базе данных
Трек  2  отсутствует в базе данных
Трек  3  отсутствует в базе данных
Трек  4  отсутствует в базе данных
Трек  5  отсутствует в базе данных
Трек  6  отсутствует в базе данных
Трек  7  отсутствует в базе данных
Трек  8  отсутствует в базе данных
Трек  9  отсутствует в базе данных
Трек 10  отсутствует в базе данных
Трек 11  отсутствует в базе данных
Трек 12  отсутствует в базе данных

Ни одного трека нет в базе AccurateRip

Конец отчёта

---- CUETools DB Plugin V2.1.3

[CTDB TOCID: dGpGuxN4UUicioluyOGlrZhk9lE-] found, Submit result: dGpGuxN4UUicioluyOGlrZhk9lE- has been confirmed
[9b2bccab] (1/1) Accurately ripped

==== Контрольная сумма отчёта 442ACE2062C5A135FDA49843D4835BF7A27B59E385C21D7B67E7D0D7B594EB55 ====
Код: Выделить всё
[img]http://i84.fastpic.ru/big/2016/1102/36/33066fd1608c9ff74a420bb064a95436.png[/img]
foobar2000 1.3.8 / Dynamic Range Meter 1.1.1
log date: 2016-11-02 15:09:31

--------------------------------------------------------------------------------
Analyzed: АлисА / Эксцесс
--------------------------------------------------------------------------------

DR         Peak         RMS     Duration Track
--------------------------------------------------------------------------------
DR6        0.00 dB    -7.77 dB      6:02 01-Эксцесс
DR7        0.00 dB    -7.94 dB      4:07 02-Новый мир
DR6        0.00 dB    -7.39 dB      4:50 03-Колобок
DR7        0.00 dB    -8.55 dB      3:27 04-За полдня до весны
DR6        0.00 dB    -7.18 dB      3:34 05-Шлак
DR6        0.00 dB    -7.28 dB      4:38 06-Дайте каплю огня
DR7        0.00 dB    -7.73 dB      3:41 07-Нае@али
DR8        0.00 dB    -8.98 dB      4:05 08-Дети последних дней
DR6        0.00 dB    -6.66 dB      4:35 09-Rock'n'Roll жесток
DR6        0.00 dB    -7.54 dB      5:50 10-Трибунал любви
DR6        0.00 dB    -7.46 dB      6:12 11-Полёт
DR7       -0.20 dB    -9.06 dB      5:00 12-Емеля
--------------------------------------------------------------------------------

Number of tracks:  12
Official DR value: DR7

Samplerate:        44100 Hz
Channels:          2
Bits per sample:   16
Bitrate:           969 kbps
Codec:             FLAC
================================================================================
Код: Выделить всё
-----------------------

DON'T MODIFY THIS FILE

-----------------------

PERFORMER: auCDtect Task Manager, ver. 1.6.0 RC1 build 1.6.0.1
Copyright (c) 2008-2010 y-soft. All rights reserved
[url=http://y-soft.org]http://y-soft.org[/url]

ANALYZER: auCDtect: CD records authenticity detector, version 0.8.2
Copyright (c) 2004 Oleg Berngardt. All rights reserved.
Copyright (c) 2004 Alexander Djourik. All rights reserved.

FILE: АлисА - Эксцесс.flac
  Size: 407268123 Hash: 84C5FFF764C62B1DEE6591EDE45F7B8A Accuracy: -m0
  Conclusion: CDDA 100%
  Signature: 489BA38CF6FBCDD7FDA9B9AA8BDCF8AD3F651FFD
FILE: АлисА - Эксцесс.wav
  Size: 593125052 Hash: 84C5FFF764C62B1DEE6591EDE45F7B8A Accuracy: -m0
  Conclusion: CDDA 100%
  Signature: EB3DAF870D17B4E513D26E32C9FFC3A4E8DB1158

[img]http://i85.fastpic.ru/big/2016/1102/a7/2b6bc9044efc2fc52b6b051d765c7aa7.png[/img]
КУБКИ

СТАЖ

МЕДАЛИ
Награды:36

Лучший по количеству кубков (14) За отличные раздачи и качество (10) За отличные комментарии (5) Почётный форумчанин (3) Верный Сид (1)

Аватара пользователя
likko
Уважаемый Релизёр-Корсар
  • Торрент
Для скачивания торрента необходимо зарегистрироваться или войти на трекер.

Вернуться в Отечественный Рок (Lossless)



Uptime по данным Ping-Admin.Ru - сервиса мониторинга доступности сайтов
Рейтинг@Mail.ru