Korsar.tv - Скачать торрент - Аламо / The Alamo (1960, Исторический, военный, WEB-DLRip) - KORSAR
logo
Международный русскоязычный
торрент-трекер
Menu

Doublon
Поделиться с друзьями: 
Голосуй за Корсар и получи 150 дублонов
Рейтинг торрент трекеров - UpTracker.ru

Аламо / The Alamo (1960, Исторический, военный, WEB-DLRip) - KORSAR

Сообщение mzma » 28 май 2018, 05:07

Название: Аламо
Оригинальное название: The Alamo
Год выпуска: 1960
Выпущено: США, Batjac Productions, Alamo Company
Жанр: Исторический, военный
Режиссер: Джон Уэйн
В ролях: Джон Уэйн, Ричард Уидмарк, Лоуренс Харви, Фрэнки Авалон, Патрик Уэйн, Линда Кристал, Джоан О`Брайэн, Чилл Уиллс, Джозеф Каллейа, Кен Кертис

О фильме: В начале XIX века Техас был частью Мексики. Но когда североамериканцев в штате стало больше, чем мексиканцев, пришлые северяне англо-саксонского происхождения, при поддержке США, подняли мятеж, и решили отделиться от Мексики в пользу Соединённых Штатов. Началась война, одним из трагических событий которой стала осада мексиканскими войсками, с целью вернуть северные территории под контроль Мексики, форта Аламо, в котором закрепились двести северян сепаратистов. Впоследствии их план, в конце концов удался, благодаря бездарному и жестокому (Голиадская резня) командованию мексиканского генерала Антонио Лопеса де Санта-Анны, который, будучи захвачен в плен, в обмен на свою жизнь, признал (Веласкские соглашения) полную и абсолютную независимость «Техасской республики».. В результате договора Гвадалупе-Идальго, Мексика потеряла большую часть своей территории (часть Калифорнии и Техас). Внимание сконцентрировано на полковниках Уильяме Трэвисе, Дэйви Крокетте и Джиме Бауи. Добротный фильм, местами не уступающий одноименному фильму 2004 года, а иногда и превосходящий его. Батальные сцены впечетляют, даже для 1960 года.



Продолжительность: 02:41:57
Перевод: Профессиональный двухголосый
Субтитры: Нет

Формат: AVI
Качество: WEB-DLRip
Видео: XviD, 1800 Кбит/сек, 720x304, 23,976 кадра/сек
Аудио #1: AC3, 2 ch, 192 Кбит/сек | Русский, профессиональный (двухголосый закадровый)
Аудио #2: AC3, 2 ch, 192 Кбит/сек | Русский, профессиональный (двухголосый закадровый) НТВ+

Релиз от:


Общее
Полное имя : Alamo.1960.WEB-DLRip.KORSAR.avi
Формат : AVI
Формат/Информация : Audio Video Interleave
Профиль формата : OpenDML
Размер файла : 2,49 Гбайт
Продолжительность : 2 ч. 41 м.
Общий поток : 2201 Кбит/сек
Программа кодирования : VirtualDubModRus 1.5.10.2 (build 2542/release)
Библиотека кодирования : VirtualDubMod build 2542/release

Видео
Идентификатор : 0
Формат : MPEG-4 Visual
Профиль формата : Advanced Simple@L5
Настройки формата : BVOP1
Параметр BVOP формата : 1
Параметр QPel формата : Нет
Параметр GMC формата : Без точки перехода
Параметр матрицы формата : Default (MPEG)
Идентификатор кодека : XVID
Идентификатор кодека/Подсказка : XviD
Продолжительность : 2 ч. 41 м.
Битрейт : 1800 Кбит/сек
Ширина : 720 пикселей
Высота : 304 пикселя
Соотношение сторон : 2,35:1
Частота кадров : 23,976 (24000/1001) кадра/сек
Частота кадров в оригинале : 23,976 (23976/1000) кадра/сек
Цветовое пространство : YUV
Субдискретизация насыщенности : 4:2:0
Битовая глубина : 8 бит
Тип развёртки : Прогрессивная
Метод сжатия : С потерями
Бит/(Пиксели*Кадры) : 0.343
Размер потока : 2,04 Гбайт (82%)
Библиотека кодирования : XviD 1.2.1 (UTC 2008-12-04)

Аудио #1
Идентификатор : 1
Формат : AC-3
Формат/Информация : Audio Coding 3
Идентификатор кодека : 2000
Продолжительность : 2 ч. 41 м.
Вид битрейта : Постоянный
Битрейт : 192 Кбит/сек
Каналы : 2 канала
Расположение каналов : Front: L R
Частота : 48,0 КГц
Частота кадров : 31,250 кадров/сек (1536 SPF)
Битовая глубина : 16 бит
Метод сжатия : С потерями
Размер потока : 222 Мбайт (9%)
Выравнивание : Соединение по промежуткам
Продолжительность промежутка : 42 мс. (1,00 видеокадр)
Время предзагрузки промежутка : 512 мс.
Заголовок : DVO

Аудио #2
Идентификатор : 2
Формат : AC-3
Формат/Информация : Audio Coding 3
Идентификатор кодека : 2000
Продолжительность : 2 ч. 41 м.
Вид битрейта : Постоянный
Битрейт : 192 Кбит/сек
Каналы : 2 канала
Расположение каналов : Front: L R
Частота : 48,0 КГц
Частота кадров : 31,250 кадров/сек (1536 SPF)
Битовая глубина : 16 бит
Метод сжатия : С потерями
Размер потока : 222 Мбайт (9%)
Выравнивание : Соединение по промежуткам
Продолжительность промежутка : 42 мс. (1,00 видеокадр)
Время предзагрузки промежутка : 512 мс.
Заголовок : DVO | НТВ+

• Исходник видео WEB-DL Amazon.
Аватара пользователя
mzma
Главный Модератор-Корсар
 
 

Награды: 69
За помощь проекту (3) Лучший по количеству кубков (6) За отличные раздачи и качество (38) За подробное оформление раздач (10) Верный Сид (10)
Раздачи группы KORSAR разрешено перезаливать спустя сутки после публикации
  • Торрент
Для скачивания торрента необходимо зарегистрироваться или войти на трекер.

Вернуться в Классика зарубежного кино (фильмы до 1980 года)



Uptime по данным Ping-Admin.Ru - сервиса мониторинга доступности сайтов
Рейтинг@Mail.ru