logo
Международный русскоязычный
торрент-трекер
Menu

Магазин-KorsaRDoublon
Поделиться с друзьями: 
Голосуй за Корсар и получай дублоны
Рейтинг торрент трекеров - UpTracker.ru

Аладдин: Трилогия / Aladdin: Trilogy (1992-1996, мюзикл, фэнтези, мелодрама, комедия, приключения, BDRip 720p)

Сообщение Gogen » 10 янв 2017, 13:14


Информация о фильме
Русское название: Аладдин: Трилогия
Оригинальное название: Aladdin: Trilogy
Год выхода: 1992-1996
Жанр: мюзикл, фэнтези, мелодрама, комедия, приключения
Режиссер: Рон Клементс, Джон Маскер, Тоби Шелтон, Тэд Стоунс, Алан Заслов
Выпущено: США
Продолжительность: 01:30:39, 01:09:15, 01:21:41
Перевод: Дублированный, Авторский (одноголосый закадровый), Профессиональный (двухголосый закадровый)


Информация о фильме
    Русское название: Аладдин
    Оригинальное название: Aladdin
    Год выхода: 1992
    Жанр: мюзикл, фэнтези, мелодрама, комедия, приключения
    Режиссер: Рон Клементс, Джон Маскер
    Выпущено: США
    Продолжительность: 01:30:39
    Перевод: Дублированный, Профессиональный (двухголосый закадровый), Авторский (одноголосый закадровый)
    Роли озвучивали: Скотт Венгер, Робин Уильямс, Линда Ларкин, Джонатан Фриман, Фрэнк Уэлкер, Гилберт Готтфрид, Дуглас Сил, Чарльз Адлер, Джек Эйнджел, Кори Бертон


Сюжет фильма
    В славном граде Аграба живет Аладдин, веселый воришка с золотым сердцем. Живет и не знает, что вскоре его ждет величайшее приключение в жизни. Ведь только с его помощью черный маг Джафар может овладеть невероятным сокровищем - лампой, в которой заключен исполняющий желания могущественный Джинн. И только хитроумие, смекалка и доброта Аладдина и его друзей - обезьянки Абу, принцессы Джасмин и самого Джинна способны помешать Джафару завладеть лампой и захватить власть над миром...


Файл
    Качество: BDRip 720p (исходник Blu-ray Disc Remux)
    Формат: MKV
    Видео: 1280x694, 4892 Кбит/сек, 23,976 кадр/сек, AVC, x264, High@L4.1, 1.85:1, 0.230 Бит/[Пиксели*Кадры]
    Аудио 1: AC-3, 448 Кбит/сек, 6 канала(ов), 48,0 КГц - Дублированный / Русский
    Аудио 2: AC-3, 448 Кбит/сек, 6 канала(ов), 48,0 КГц - Двухголосый закадровый, Гланц и Королева / Русский
    Аудио 3: AC-3, 448 Кбит/сек, 6 канала(ов), 48,0 КГц - Одноголосый закадровый, Михалев / Русский
    Аудио 4: AC-3, 192 Кбит/сек, 2 канала(ов), 48,0 КГц - Одноголосый закадровый, Марченко / Русский
    Аудио 5: AC-3, 448 Кбит/сек, 6 канала(ов), 48,0 КГц - Оригинал / Английский
    Субтитры: Русские | Полные, Английские | Полные
    Форсированные субтитры: Нет
    Чаптеры (Главы): Есть
    Дополнительно: Использован быстрый пропуск кадров. На качестве картинки не сказалось.




Автор Рипа: Группа: мы в VK



Format : Matroska
Format version : Version 2
File size : 4.35 GiB
Duration : 1 h 30 min
Overall bit rate : 6 869 kb/s
Movie name : Aladdin.(1992).BDRip.720p.[envy]
Encoded date : UTC 2016-10-06 16:31:29
Writing application : mkvmerge v5.8.0 ('No Sleep / Pillow') built on Sep 2 2012 15:37:04
Writing library : libebml v1.2.3 + libmatroska v1.3.0

Video
ID : 1
Format : AVC
Format/Info : Advanced Video Codec
Format profile : High@L4.1
Format settings, CABAC : Yes
Format settings, ReFrames : 9 frames
Codec ID : V_MPEG4/ISO/AVC
Duration : 1 h 30 min
Bit rate : 4 892 kb/s
Width : 1 280 pixels
Height : 694 pixels
Display aspect ratio : 1.85:1
Frame rate mode : Constant
Frame rate : 23.976 (24000/1001) FPS
Color space : YUV
Chroma subsampling : 4:2:0
Bit depth : 8 bits
Scan type : Progressive
Bits/(Pixel*Frame) : 0.230
Stream size : 3.01 GiB (69%)
Title : Aladdin.(1992).BDRip.720p.[envy]
Writing library : x264 core 148 r2721 72d53ab
Encoding settings : cabac=1 / ref=9 / deblock=1:0:0 / analyse=0x3:0x113 / me=umh / subme=11 / psy=1 / psy_rd=1.00:0.00 / mixed_ref=1 / me_range=32 / chroma_me=1 / trellis=2 / 8x8dct=1 / cqm=0 / deadzone=21,11 / fast_pskip=1 / chroma_qp_offset=-2 / threads=12 / lookahead_threads=2 / sliced_threads=0 / nr=0 / decimate=1 / interlaced=0 / bluray_compat=0 / constrained_intra=0 / bframes=7 / b_pyramid=2 / b_adapt=2 / b_bias=0 / direct=3 / weightb=1 / open_gop=0 / weightp=2 / keyint=240 / keyint_min=23 / scenecut=40 / intra_refresh=0 / rc_lookahead=40 / rc=2pass / mbtree=0 / bitrate=4892 / ratetol=1.0 / qcomp=0.60 / qpmin=0 / qpmax=69 / qpstep=4 / cplxblur=20.0 / qblur=0.5 / vbv_maxrate=62500 / vbv_bufsize=78125 / nal_hrd=none / filler=0 / ip_ratio=1.40 / pb_ratio=1.30 / aq=2:0.80
Language : English
Default : Yes
Forced : No

Audio #1
ID : 2
Format : AC-3
Format/Info : Audio Coding 3
Mode extension : CM (complete main)
Format settings, Endianness : Big
Codec ID : A_AC3
Duration : 1 h 30 min
Bit rate mode : Constant
Bit rate : 448 kb/s
Channel(s) : 6 channels
Channel positions : Front: L C R, Side: L R, LFE
Sampling rate : 48.0 kHz
Frame rate : 31.250 FPS (1536 spf)
Compression mode : Lossy
Stream size : 291 MiB (7%)
Title : Dub
Language : Russian
Default : Yes
Forced : No

Audio #2
ID : 3
Format : AC-3
Format/Info : Audio Coding 3
Mode extension : CM (complete main)
Format settings, Endianness : Big
Codec ID : A_AC3
Duration : 1 h 30 min
Bit rate mode : Constant
Bit rate : 448 kb/s
Channel(s) : 6 channels
Channel positions : Front: L C R, Side: L R, LFE
Sampling rate : 48.0 kHz
Frame rate : 31.250 FPS (1536 spf)
Compression mode : Lossy
Stream size : 291 MiB (7%)
Title : DVO Гланц и Королева
Language : Russian
Default : No
Forced : No

Audio #3
ID : 4
Format : AC-3
Format/Info : Audio Coding 3
Mode extension : CM (complete main)
Format settings, Endianness : Big
Codec ID : A_AC3
Duration : 1 h 30 min
Bit rate mode : Constant
Bit rate : 448 kb/s
Channel(s) : 6 channels
Channel positions : Front: L C R, Side: L R, LFE
Sampling rate : 48.0 kHz
Frame rate : 31.250 FPS (1536 spf)
Compression mode : Lossy
Stream size : 291 MiB (7%)
Title : AVO Михалев
Language : Russian
Default : No
Forced : No

Audio #4
ID : 5
Format : AC-3
Format/Info : Audio Coding 3
Mode extension : CM (complete main)
Format settings, Endianness : Big
Codec ID : A_AC3
Duration : 1 h 30 min
Bit rate mode : Constant
Bit rate : 192 kb/s
Channel(s) : 2 channels
Channel positions : Front: L R
Sampling rate : 48.0 kHz
Frame rate : 31.250 FPS (1536 spf)
Compression mode : Lossy
Delay relative to video : 19 s 102 ms
Stream size : 125 MiB (3%)
Title : AVO Марченко
Language : Russian
Default : No
Forced : No

Audio #5
ID : 6
Format : AC-3
Format/Info : Audio Coding 3
Mode extension : CM (complete main)
Format settings, Endianness : Big
Codec ID : A_AC3
Duration : 1 h 30 min
Bit rate mode : Constant
Bit rate : 448 kb/s
Channel(s) : 6 channels
Channel positions : Front: L C R, Side: L R, LFE
Sampling rate : 48.0 kHz
Frame rate : 31.250 FPS (1536 spf)
Compression mode : Lossy
Stream size : 291 MiB (7%)
Title : Eng
Language : English
Default : No
Forced : No

Text #1
ID : 7
Format : UTF-8
Codec ID : S_TEXT/UTF8
Codec ID/Info : UTF-8 Plain Text
Title : Rus full
Language : Russian
Default : No
Forced : No

Text #2
ID : 8
Format : UTF-8
Codec ID : S_TEXT/UTF8
Codec ID/Info : UTF-8 Plain Text
Title : Eng full
Language : English
Default : No
Forced : No

Menu
00:00:00.000 : :Chapter 01
00:03:06.060 : :Chapter 02
00:06:47.323 : :Chapter 03
00:12:37.423 : :Chapter 04
00:16:34.618 : :Chapter 05
00:19:39.052 : :Chapter 06
00:23:50.470 : :Chapter 07
00:27:39.324 : :Chapter 08
00:31:21.629 : :Chapter 09
00:34:55.676 : :Chapter 10
00:37:20.363 : :Chapter 11
00:41:13.387 : :Chapter 12
00:43:32.860 : :Chapter 13
00:47:17.042 : :Chapter 14
00:48:39.958 : :Chapter 15
00:55:20.025 : :Chapter 16
00:57:37.745 : :Chapter 17
01:03:04.906 : :Chapter 18
01:07:24.915 : :Chapter 19
01:10:07.411 : :Chapter 20
01:10:41.654 : :Chapter 21
01:15:31.610 : :Chapter 22
01:18:57.983 : :Chapter 23
01:21:41.438 : :Chapter 24
01:25:43.555 : :Chapter 25
01:30:39.600 : :Chapter 26



#777Информация о фильме
    Русское название: Возвращение Джафара
    Оригинальное название: The Return of Jafar
    Год выхода: 1994
    Жанр: мюзикл, фэнтези, мелодрама, комедия, приключения
    Режиссер: Тоби Шелтон, Тэд Стоунс, Алан Заслов
    Выпущено: США
    Продолжительность: 01:09:15
    Перевод: Дублированный, Профессиональный (двухголосый закадровый), Авторский (одноголосый закадровый)
    Роли озвучивали: Джейсон Александер, Джонатан Фриман, Джефф Беннетт, Гилберт Готтфрид, Вэл Бэттин, Брэд Кэйн, Лиз Колэуэй, Линда Ларкин, Дэн Кастелланета, Б.Дж. Уорд


Сюжет фильма
    Продолжение волшебной сказки об Аладдине. Вторая часть захватывающей трилогии о храбром уличном воришке начинается прямо там, где закончился первый мультфильм. Уже казалось бы, что черному чародею и новоявленному джинну Джафару суждено навеки остаться пленником волшебной лампы, - но ему удается освободиться! И на уме у коварного злодея лишь одно: он жаждет отомстить Аладдину.
    А тем временем, в Аграбе жизнь идет своим чередом. Неунывающий проказник Джинн вернулся из кругосветного путешествия, и рассказывает друзьям невероятные истории о своих приключениях. Но счастье продлится недолго. Нашим героям вновь придется встретиться с Джафаром лицом к лицу, и им пригодится вся их магия и отвага.
    Немало препятствий встанет на пути наших старых знакомых Аладдина, принцессы Джасмин, Абу, Коврика и (конечно же!) Джинна. Тут и сражения с ворами на летающих лошадях, и объятые пламенем клокочущие расщелины с лавой. Но отступить нельзя - ведь на кону судьба всего королевства!


Файл
    Качество: BDRip 720p (исходник Blu-ray Disc)
    Формат: MKV
    Видео: 1280x720, 4195 Кбит/сек, 23,976 кадр/сек, AVC, x264, High@L4.1, 16:9, 0.190 Бит/[Пиксели*Кадры]
    Аудио 1: AC-3, 320 Кбит/сек, 2 канала(ов), 48,0 КГц - Дублированный / Русский
    Аудио 2: AC-3, 192 Кбит/сек, 2 канала(ов), 48,0 КГц - Двухголосый закадровый / Русский
    Аудио 3: AC-3, 192 Кбит/сек, 2 канала(ов), 48,0 КГц - Одноголосый закадровый, Гаврилов / Русский
    Аудио 4: AC-3, 192 Кбит/сек, 2 канала(ов), 48,0 КГц - Одноголосый закадровый, Алексеев / Русский
    Аудио 5: AC-3, 192 Кбит/сек, 2 канала(ов), 48,0 КГц - Одноголосый закадровый, Горчаков / Русский
    Аудио 6: AC-3, 192 Кбит/сек, 2 канала(ов), 48,0 КГц - Одноголосый закадровый, Ошурков / Русский
    Аудио 7: AC-3, 448 Кбит/сек, 6 канала(ов), 48,0 КГц - Оригинал / Английский
    Субтитры: Русские | Полные, Английские | Полные
    Форсированные субтитры: Нет
    Чаптеры (Главы): Есть
    Дополнительно: Использован быстрый пропуск кадров. На качестве картинки не сказалось.




Автор Рипа: Группа: мы в VK



Format : Matroska
Format version : Version 2
File size : 2.86 GiB
Duration : 1 h 9 min
Overall bit rate : 5 903 kb/s
Movie name : The Return of Jafar.(1994).BDRip.720p.[envy]
Encoded date : UTC 2016-10-04 16:25:40
Writing application : mkvmerge v5.8.0 ('No Sleep / Pillow') built on Sep 2 2012 15:37:04
Writing library : libebml v1.2.3 + libmatroska v1.3.0

Video
ID : 1
Format : AVC
Format/Info : Advanced Video Codec
Format profile : High@L4.1
Format settings, CABAC : Yes
Format settings, ReFrames : 9 frames
Codec ID : V_MPEG4/ISO/AVC
Duration : 1 h 9 min
Bit rate : 4 195 kb/s
Width : 1 280 pixels
Height : 720 pixels
Display aspect ratio : 16:9
Frame rate mode : Constant
Frame rate : 23.976 (24000/1001) FPS
Color space : YUV
Chroma subsampling : 4:2:0
Bit depth : 8 bits
Scan type : Progressive
Bits/(Pixel*Frame) : 0.190
Stream size : 1.96 GiB (69%)
Title : The Return of Jafar.(1994).BDRip.720p.[envy]
Writing library : x264 core 148 r2721 72d53ab
Encoding settings : cabac=1 / ref=9 / deblock=1:-3:-3 / analyse=0x3:0x113 / me=umh / subme=11 / psy=1 / psy_rd=1.00:0.00 / mixed_ref=1 / me_range=32 / chroma_me=1 / trellis=2 / 8x8dct=1 / cqm=0 / deadzone=21,11 / fast_pskip=1 / chroma_qp_offset=-2 / threads=12 / lookahead_threads=1 / sliced_threads=0 / nr=0 / decimate=1 / interlaced=0 / bluray_compat=0 / constrained_intra=0 / bframes=6 / b_pyramid=2 / b_adapt=2 / b_bias=0 / direct=3 / weightb=1 / open_gop=0 / weightp=2 / keyint=240 / keyint_min=23 / scenecut=40 / intra_refresh=0 / rc_lookahead=40 / rc=2pass / mbtree=0 / bitrate=4195 / ratetol=1.0 / qcomp=0.60 / qpmin=0 / qpmax=69 / qpstep=4 / cplxblur=20.0 / qblur=0.5 / vbv_maxrate=62500 / vbv_bufsize=78125 / nal_hrd=none / filler=0 / ip_ratio=1.40 / pb_ratio=1.30 / aq=2:0.90
Language : English
Default : Yes
Forced : No

Audio #1
ID : 2
Format : AC-3
Format/Info : Audio Coding 3
Format profile : Dolby Digital
Mode extension : CM (complete main)
Format settings, Endianness : Big
Codec ID : A_AC3
Duration : 1 h 9 min
Bit rate mode : Constant
Bit rate : 320 kb/s
Channel(s) : 2 channels
Channel positions : Front: L R
Sampling rate : 48.0 kHz
Frame rate : 31.250 FPS (1536 spf)
Compression mode : Lossy
Stream size : 159 MiB (5%)
Title : Dub
Language : Russian
Default : Yes
Forced : No

Audio #2
ID : 3
Format : AC-3
Format/Info : Audio Coding 3
Mode extension : CM (complete main)
Format settings, Endianness : Big
Codec ID : A_AC3
Duration : 1 h 9 min
Bit rate mode : Constant
Bit rate : 192 kb/s
Channel(s) : 2 channels
Channel positions : Front: L R
Sampling rate : 48.0 kHz
Frame rate : 31.250 FPS (1536 spf)
Compression mode : Lossy
Stream size : 95.1 MiB (3%)
Title : DVO
Language : Russian
Default : No
Forced : No

Audio #3
ID : 4
Format : AC-3
Format/Info : Audio Coding 3
Mode extension : CM (complete main)
Format settings, Endianness : Big
Codec ID : A_AC3
Duration : 1 h 9 min
Bit rate mode : Constant
Bit rate : 192 kb/s
Channel(s) : 2 channels
Channel positions : Front: L R
Sampling rate : 48.0 kHz
Frame rate : 31.250 FPS (1536 spf)
Compression mode : Lossy
Stream size : 95.1 MiB (3%)
Title : AVO Гаврилов
Language : Russian
Default : No
Forced : No

Audio #4
ID : 5
Format : AC-3
Format/Info : Audio Coding 3
Mode extension : CM (complete main)
Format settings, Endianness : Big
Codec ID : A_AC3
Duration : 1 h 9 min
Bit rate mode : Constant
Bit rate : 192 kb/s
Channel(s) : 2 channels
Channel positions : Front: L R
Sampling rate : 48.0 kHz
Frame rate : 31.250 FPS (1536 spf)
Compression mode : Lossy
Stream size : 95.1 MiB (3%)
Title : AVO Алексеев
Language : Russian
Default : No
Forced : No

Audio #5
ID : 6
Format : AC-3
Format/Info : Audio Coding 3
Mode extension : CM (complete main)
Format settings, Endianness : Big
Codec ID : A_AC3
Duration : 1 h 9 min
Bit rate mode : Constant
Bit rate : 192 kb/s
Channel(s) : 1 channel
Channel positions : Front: C
Sampling rate : 48.0 kHz
Frame rate : 31.250 FPS (1536 spf)
Compression mode : Lossy
Stream size : 95.1 MiB (3%)
Title : AVO Горчаков
Language : Russian
Default : No
Forced : No

Audio #6
ID : 7
Format : AC-3
Format/Info : Audio Coding 3
Mode extension : CM (complete main)
Format settings, Endianness : Big
Codec ID : A_AC3
Duration : 1 h 9 min
Bit rate mode : Constant
Bit rate : 192 kb/s
Channel(s) : 2 channels
Channel positions : Front: L R
Sampling rate : 48.0 kHz
Frame rate : 31.250 FPS (1536 spf)
Compression mode : Lossy
Stream size : 95.1 MiB (3%)
Title : AVO Ошурков
Language : Russian
Default : No
Forced : No

Audio #7
ID : 8
Format : AC-3
Format/Info : Audio Coding 3
Mode extension : CM (complete main)
Format settings, Endianness : Big
Codec ID : A_AC3
Duration : 1 h 9 min
Bit rate mode : Constant
Bit rate : 448 kb/s
Channel(s) : 6 channels
Channel positions : Front: L C R, Side: L R, LFE
Sampling rate : 48.0 kHz
Frame rate : 31.250 FPS (1536 spf)
Compression mode : Lossy
Stream size : 222 MiB (8%)
Title : Eng
Language : English
Default : No
Forced : No

Text #1
ID : 9
Format : UTF-8
Codec ID : S_TEXT/UTF8
Codec ID/Info : UTF-8 Plain Text
Title : Rus full
Language : Russian
Default : No
Forced : No

Text #2
ID : 10
Format : UTF-8
Codec ID : S_TEXT/UTF8
Codec ID/Info : UTF-8 Plain Text
Title : Eng full
Language : English
Default : No
Forced : No

Menu
00:00:00.000 : :Chapter 01
00:02:50.795 : :Chapter 02
00:04:56.629 : :Chapter 03
00:07:57.768 : :Chapter 04
00:10:33.632 : :Chapter 05
00:14:41.297 : :Chapter 06
00:20:02.201 : :Chapter 07
00:24:28.967 : :Chapter 08
00:26:13.238 : :Chapter 09
00:31:05.572 : :Chapter 10
00:34:21.559 : :Chapter 11
00:37:58.442 : :Chapter 12
00:40:40.688 : :Chapter 13
00:45:58.380 : :Chapter 14
00:49:12.532 : :Chapter 15
00:52:34.860 : :Chapter 16
00:56:45.110 : :Chapter 17
00:58:38.014 : :Chapter 18
01:03:25.009 : :Chapter 19
01:05:30.676 : :Chapter 20
01:09:05.432 : :Chapter 21



#777Информация о фильме
    Русское название: Аладдин и король разбойников
    Оригинальное название: Aladdin and the King of Thieves
    Год выхода: 1996
    Жанр: мюзикл, фэнтези, мелодрама, комедия, приключения
    Режиссер: Тэд Стоунс
    Выпущено: США
    Продолжительность: 01:21:41
    Перевод: Дублированный, Авторский (одноголосый закадровый)
    Роли озвучивали: Вэл Бэттин, Джим Каммингс, Гилберт Готтфрид, Линда Ларкин, Джерри Орбак, Джон Рис-Дэвис, Скотт Венгер, Фрэнк Уэлкер, Робин Уильямс, Джефф Беннетт


Сюжет фильма
    Все жители Аграбы дружно готовятся к величайшему празднику - вот-вот состоится долгожданная свадьба Аладдина и принцессы Жасмин! Но сначала нашему герою придется остановить легендарную шайку сорока разбойников - ведь они хотят похитить свадебный подарок - всевидящего Оракула, с помощью которого злодеи хотят отыскать и прибрать к своим рукам все сокровища мира.Аладдину и его неразлучным друзьям - Жасмин, Абу, Коврику и весельчаку Джинну придется пережить немало приключений и найти выход из самых безвыходных ситуаций в погоне за Королем Разбойников и его удалой безжалостной шайкой.


Файл
    Качество: BDRip 720p (исходник Blu-ray Disc)
    Формат: MKV
    Видео: 1280x718, 5964 Кбит/сек, 23,976 кадр/сек, AVC, x264, High@L4.1, 1.85:1, 0.271 Бит/[Пиксели*Кадры]
    Аудио 1: AC-3, 640 Кбит/сек, 6 канала(ов), 48,0 КГц - Дублированный / Русский
    Аудио 2: AC-3, 384 Кбит/сек, 6 канала(ов), 48,0 КГц - Одноголосый закадровый, Живов / Русский
    Аудио 3: AC-3, 192 Кбит/сек, 2 канала(ов), 48,0 КГц - Одноголосый закадровый, Кузнецов / Русский
    Аудио 4: AC-3, 448 Кбит/сек, 6 канала(ов), 48,0 КГц - Оригинал / Английский
    Субтитры: Русские | Полные, Английские | Полные
    Форсированные субтитры: Нет
    Чаптеры (Главы): Есть




Автор Рипа: Группа: мы в VK



Format : Matroska
Format version : Version 2
File size : 4.35 GiB
Duration : 1 h 21 min
Overall bit rate : 7 616 kb/s
Movie name : Aladdin and the King of Thieves.(1996).BDRip.720p.[envy]
Encoded date : UTC 2016-10-03 17:40:36
Writing application : mkvmerge v5.8.0 ('No Sleep / Pillow') built on Sep 2 2012 15:37:04
Writing library : libebml v1.2.3 + libmatroska v1.3.0

Video
ID : 1
Format : AVC
Format/Info : Advanced Video Codec
Format profile : High@L4.1
Format settings, CABAC : Yes
Format settings, ReFrames : 9 frames
Codec ID : V_MPEG4/ISO/AVC
Duration : 1 h 21 min
Bit rate : 5 964 kb/s
Width : 1 280 pixels
Height : 718 pixels
Display aspect ratio : 16:9
Frame rate mode : Constant
Frame rate : 23.976 (24000/1001) FPS
Color space : YUV
Chroma subsampling : 4:2:0
Bit depth : 8 bits
Scan type : Progressive
Bits/(Pixel*Frame) : 0.271
Stream size : 3.31 GiB (76%)
Title : Aladdin and the King of Thieves.(1996).BDRip.720p.[envy]
Writing library : x264 core 148 r2721 72d53ab
Encoding settings : cabac=1 / ref=9 / deblock=1:-3:-3 / analyse=0x3:0x113 / me=umh / subme=11 / psy=1 / psy_rd=1.00:0.00 / mixed_ref=1 / me_range=32 / chroma_me=1 / trellis=2 / 8x8dct=1 / cqm=0 / deadzone=21,11 / fast_pskip=0 / chroma_qp_offset=-2 / threads=12 / lookahead_threads=2 / sliced_threads=0 / nr=0 / decimate=1 / interlaced=0 / bluray_compat=0 / constrained_intra=0 / bframes=7 / b_pyramid=2 / b_adapt=2 / b_bias=0 / direct=3 / weightb=1 / open_gop=0 / weightp=2 / keyint=240 / keyint_min=23 / scenecut=40 / intra_refresh=0 / rc_lookahead=40 / rc=2pass / mbtree=0 / bitrate=5964 / ratetol=1.0 / qcomp=0.60 / qpmin=0 / qpmax=69 / qpstep=4 / cplxblur=20.0 / qblur=0.5 / vbv_maxrate=62500 / vbv_bufsize=78125 / nal_hrd=none / filler=0 / ip_ratio=1.40 / pb_ratio=1.30 / aq=2:1.00
Language : English
Default : Yes
Forced : No

Audio #1
ID : 2
Format : AC-3
Format/Info : Audio Coding 3
Mode extension : CM (complete main)
Format settings, Endianness : Big
Codec ID : A_AC3
Duration : 1 h 21 min
Bit rate mode : Constant
Bit rate : 640 kb/s
Channel(s) : 6 channels
Channel positions : Front: L C R, Side: L R, LFE
Sampling rate : 48.0 kHz
Frame rate : 31.250 FPS (1536 spf)
Compression mode : Lossy
Stream size : 374 MiB (8%)
Title : Dub
Language : Russian
Default : Yes
Forced : No

Audio #2
ID : 3
Format : AC-3
Format/Info : Audio Coding 3
Mode extension : CM (complete main)
Format settings, Endianness : Big
Codec ID : A_AC3
Duration : 1 h 21 min
Bit rate mode : Constant
Bit rate : 384 kb/s
Channel(s) : 6 channels
Channel positions : Front: L C R, Side: L R, LFE
Sampling rate : 48.0 kHz
Frame rate : 31.250 FPS (1536 spf)
Compression mode : Lossy
Stream size : 224 MiB (5%)
Title : AVO Живов
Language : Russian
Default : No
Forced : No

Audio #3
ID : 4
Format : AC-3
Format/Info : Audio Coding 3
Mode extension : CM (complete main)
Format settings, Endianness : Big
Codec ID : A_AC3
Duration : 1 h 21 min
Bit rate mode : Constant
Bit rate : 192 kb/s
Channel(s) : 2 channels
Channel positions : Front: L R
Sampling rate : 48.0 kHz
Frame rate : 31.250 FPS (1536 spf)
Compression mode : Lossy
Stream size : 112 MiB (3%)
Title : VO Кузнецов
Language : Russian
Default : No
Forced : No

Audio #4
ID : 7
Format : AC-3
Format/Info : Audio Coding 3
Mode extension : CM (complete main)
Format settings, Endianness : Big
Codec ID : A_AC3
Duration : 1 h 21 min
Bit rate mode : Constant
Bit rate : 448 kb/s
Channel(s) : 6 channels
Channel positions : Front: L C R, Side: L R, LFE
Sampling rate : 48.0 kHz
Frame rate : 31.250 FPS (1536 spf)
Compression mode : Lossy
Stream size : 262 MiB (6%)
Title : Eng
Language : English
Default : No
Forced : No

Text #1
ID : 5
Format : UTF-8
Codec ID : S_TEXT/UTF8
Codec ID/Info : UTF-8 Plain Text
Title : Rus full
Language : Russian
Default : No
Forced : No

Text #2
ID : 6
Format : UTF-8
Codec ID : S_TEXT/UTF8
Codec ID/Info : UTF-8 Plain Text
Title : Eng full
Language : English
Default : No
Forced : No

Menu
00:00:00.000 : :Chapter 01
00:07:10.930 : :Chapter 02
00:11:41.492 : :Chapter 03
00:17:17.119 : :Chapter 04
00:19:22.202 : :Chapter 05
00:25:45.377 : :Chapter 06
00:34:07.712 : :Chapter 07
00:40:32.138 : :Chapter 08
00:47:34.810 : :Chapter 09
00:56:57.914 : :Chapter 10
01:08:19.136 : :Chapter 11
01:17:13.712 : :Chapter 12
01:21:32.470 : :Chapter 13
Аватара пользователя
Gogen
Заслуженный Релизёр-Корсар
 
 

Награды: 16
Лучший по количеству кубков (5) За отличные раздачи и качество (10)
  • Торрент
Для скачивания торрента необходимо зарегистрироваться или войти на трекер.

Сообщение dmsushko » 10 янв 2017, 15:04

ну просто суперский мультфильм и отличный перевод Михалёва для первой части :yahoo: да и игра для Sega MegaDrive/Genesis тоже огонь была 8-)
Аватара пользователя
dmsushko
Уважаемый Корсар
 
 

Награды: 4
Верный Сид (4)


Вернуться в Мультфильмы (HD Video)



Uptime по данным Ping-Admin.Ru - сервиса мониторинга доступности сайтов