logo
Международный русскоязычный
торрент-трекер
Menu
"Бунт на корабле", за скачанные торрент-файлы дублоны не снимаются. Возможность оплачена пользователем gros.
Doublon
Поделиться с друзьями: 
Голосуй за Корсар и получи 500 дублонов
Рейтинг торрент трекеров - UpTracker.ru

Афон. Русское наследие (2016, Документальный, HDTVRip-AVC) - KORSAR

Сообщение Sanechek » 25 мар 2017, 18:16

Название: Афон. Русское наследие
Год выхода: 2016
Жанр: Документальный
Режиссер: Сергей Холошевский

О фильме: Тысячу лет назад отсюда на Русь пришли первые монахи. И именно здесь - истоки русского монашества. На протяжении столетий эта земля живет по своим правилам и законам. И никому не позволяет вмешиваться в свою жизнь. Получить благословение от игумена или духовника монастыря - большая удача. Монахи, ищущие путь к Богу в уединении, крайне неохотно соглашаются на съемки. Группе Сергея Холошевского удалось почти невозможное - приоткрыть завесу тайны, побывать там, где не бывала еще ни одна съемочная группа в мире. Святая Гора Афон, государство в государстве, единственная в мире монашеская республика...

Выпущено: Россия, НТВ
Продолжительность: 00:46:07
Перевод: не требуется

Файл
Кодек: х264
Качество: HDTVRip-AVC
Видео: MPEG-4 AVC, 1024x576, 25 fps, 3500 Кбит/с
Звук: AC3, 2 ch, 224 Кбит/с

x264 [info]: frame I:487 Avg QP:17.67 size: 87997
x264 [info]: frame P:15347 Avg QP:19.18 size: 40547
x264 [info]: frame B:53364 Avg QP:20.49 size: 10230
==================================================================
Общее
Уникальный идентификатор : 249398663434238937735351454975212430548 (0xBBA06F765CC026339FF38B6E45D0A4D4)
Полное имя : D:\В И Д Е О\P А З Н Ы Е\Афон. Русское наследие (2016).mkv
Формат : Matroska
Версия формата : Version 2
Размер файла : 1,20 Гбайт
Продолжительность : 46 м. 7 с.
Общий поток : 3726 Кбит/сек
Дата кодирования : UTC 2017-03-25 08:54:05
Программа кодирования : mkvmerge v7.8.0 ('River Man') 32bit built on Apr 3 2015 12:11:22
Библиотека кодирования : libebml v1.3.1 + libmatroska v1.4.2

Видео
Идентификатор : 1
Формат : AVC
Формат/Информация : Advanced Video Codec
Профиль формата : High@L4.1
Параметр CABAC формата : Да
Параметр ReFrames формата : 12 кадров
Идентификатор кодека : V_MPEG4/ISO/AVC
Продолжительность : 46 м. 7 с.
Битрейт : 3500 Кбит/сек
Ширина : 1024 пикселя
Высота : 576 пикселей
Соотношение сторон : 16:9
Режим частоты кадров : Постоянный
Частота кадров : 25,000 кадров/сек
Цветовое пространство : YUV
Субдискретизация насыщенности : 4:2:0
Битовая глубина : 8 бит
Тип развёртки : Прогрессивная
Бит/(Пиксели*Кадры) : 0.237
Размер потока : 1,10 Гбайт (92%)
Библиотека кодирования : x264 core 148 r2744kMod b97ae06
Настройки программы : cabac=1 / ref=12 / deblock=1:-2:-2 / analyse=0x3:0x133 / me=umh / subme=10 / psy=1 / fade_compensate=0.00 / psy_rd=1.05:0.10 / mixed_ref=1 / me_range=32 / chroma_me=1 / trellis=2 / 8x8dct=1 / cqm=0 / deadzone=21,11 / fast_pskip=0 / chroma_qp_offset=-3 / threads=3 / lookahead_threads=1 / sliced_threads=0 / nr=0 / decimate=0 / interlaced=0 / bluray_compat=0 / constrained_intra=0 / bframes=16 / b_pyramid=2 / b_adapt=2 / b_bias=0 / direct=3 / weightb=1 / open_gop=0 / weightp=2 / keyint=250 / keyint_min=25 / scenecut=40 / intra_refresh=0 / rc_lookahead=70 / rc=2pass / mbtree=1 / bitrate=3500 / ratetol=1.0 / qcomp=0.75 / qpmin=0 / qpmax=39 / qpstep=4 / cplxblur=20.0 / qblur=0.5 / ip_ratio=1.10 / aq=2:1.00
Язык : Russian
Default : Да
Forced : Нет
Цветовой диапазон : Limited
Основные цвета : BT.709
Характеристики трансфера : BT.709
Коэффициенты матрицы : BT.709

Аудио
Идентификатор : 2
Формат : AC-3
Формат/Информация : Audio Coding 3
Расширение режима : CM (complete main)
Параметр Endianness формата : Big
Идентификатор кодека : A_AC3
Продолжительность : 46 м. 7 с.
Вид битрейта : Постоянный
Битрейт : 224 Кбит/сек
Каналы : 2 канала
Расположение каналов : Front: L R
Частота : 48,0 КГц
Частота кадров : 31,250 кадров/сек (1536 spf)
Битовая глубина : 16 бит
Метод сжатия : С потерями
Размер потока : 73,9 Мбайт (6%)
Язык : Russian
Default : Да
Forced : Нет
Просьба отключить блокировщики рекламы на странице скриншотов по адресу: http://3.lostpic.net/, этим Вы поможете существованию проекта. Заранее спасибо!
КУБКИ

СТАЖ

МЕДАЛИ
Награды:57

За активную помощь проекту (3) Лучший по количеству кубков (6) За отличные раздачи и качество (19) За подробное оформление раздач (1) За отличные комментарии (5) Почётный форумчанин (1) Верный Сид (22)

Аватара пользователя
СССР
Sanechek
Заслуженный Корсар-Вип+
Раздачи группы KORSAR разрешено перезаливать спустя 7 дней после публикации и с обязательным добавлением банера
  • Торрент
Для скачивания торрента необходимо зарегистрироваться или войти на трекер.

Сообщение filbi1976 » 25 мар 2017, 18:43

Саша, спасибо! :hi:
Посмотреть товар в профиле пользователя

Нажмите на изображение, чтобы увидеть в полный размер  
1 шт.
Нажмите на изображение, чтобы увидеть в полный размер  
1 шт.
Нажмите на изображение, чтобы увидеть в полный размер  
1 шт.
Нажмите на изображение, чтобы увидеть в полный размер  
1 шт.
Нажмите на изображение, чтобы увидеть в полный размер  
1 шт.
Нажмите на изображение, чтобы увидеть в полный размер  
1 шт.
Нажмите на изображение, чтобы увидеть в полный размер  
1 шт.
Нажмите на изображение, чтобы увидеть в полный размер  
1 шт.
Нажмите на изображение, чтобы увидеть в полный размер  
1 шт.
Нажмите на изображение, чтобы увидеть в полный размер  
1 шт.
Нажмите на изображение, чтобы увидеть в полный размер  
1 шт.
Нажмите на изображение, чтобы увидеть в полный размер  
1 шт.
Нажмите на изображение, чтобы увидеть в полный размер  
1 шт.
Нажмите на изображение, чтобы увидеть в полный размер  
1 шт.
Нажмите на изображение, чтобы увидеть в полный размер  
1 шт.
КУБКИ

СТАЖ

МЕДАЛИ
Награды:127

За активную помощь проекту (4) За отличные раздачи и качество (83) За подробное оформление раздач (1) За отличные комментарии (6) Почётный форумчанин (1) Верный Сид (30) За участие в конкурсах/играх (1)

Аватара пользователя
Тортуга
filbi1976
Администратор-Корсар

Сообщение kwazar312 » 25 мар 2017, 18:51

Уважаемый Sanechek,большое спасибо за новинку.Описание заставляет обратить внимание на этот фильм.
КУБКИ

СТАЖ

МЕДАЛИ
Награды:131

За активную помощь проекту (13) Лучший по количеству кубков (40) За отличные раздачи и качество (3) За отличные комментарии (22) Почётный форумчанин (1) Верный Сид (46) За участие в конкурсах/играх (6)

Аватара пользователя
kwazar312
Заслуженный Корсар-Вип

Сообщение Sanechek » 25 мар 2017, 20:52

Пожалуйста, приятного просмотра! :hi:
КУБКИ

СТАЖ

МЕДАЛИ
Награды:57

За активную помощь проекту (3) Лучший по количеству кубков (6) За отличные раздачи и качество (19) За подробное оформление раздач (1) За отличные комментарии (5) Почётный форумчанин (1) Верный Сид (22)

Аватара пользователя
СССР
Sanechek
Заслуженный Корсар-Вип+


Вернуться в Христианство



Uptime по данным Ping-Admin.Ru - сервиса мониторинга доступности сайтов
Рейтинг@Mail.ru