logo
Международный русскоязычный
торрент-трекер
Menu

Магазин-KorsaRDoublon

Поделиться с друзьями: 
Голосуй и получи дублоны
Рейтинг торрент трекеров - UpTracker.ru

АББА: Фильм / ABBA: The Movie (1977, драма, комедия, музыка, HDTV 1080i)

Сообщение Korsar » 11 янв 2017, 16:55

АББА: Фильм / ABBA: The Movie
Страна: Австралия, Швеция
Студия: Polar Music International, Reg Grundy Productions Pty. Ltd.
Жанр: драма, комедия, музыка
Год выпуска: 1977
Продолжительность: 01:29:37

Перевод: Профессиональный (двухголосый закадровый)
Cубтитры: нет
Оригинальная аудиодорожка: нет

Режиссер: Лассе Халльстрём / Lasse Hallström

В ролях: Анни-Фрид Люнгстад, Бенни Андерссон, Бьёрн Ульвеус, Агнета Фельтског, Роберт Хьюз, Том Оливер, Брюс Бэрри, Стиг Андерсон, Кэлвин Кросс, Ивар Дальборн

Описание: Фильм рассказывает об австралийских гастролях сверхпопулярной в свое время шведской группы «АББА», а также о незадачливом репортере, пытающемся взять интервью у музыкантов. "АББАМАНИЯ" — так называли истеричное поклонение четырем шведам, которое сотрясало Австралию в середине семидесятых. Этот феномен достиг апогея в марте 1977 года, когда группа "АBBA" с ошеломительным успехом провела тур "Down under". Лихорадочное безумие, сопровождавшее концерты группы, было запечатлено на пленку и стало частью документальной картины "АBBA" режиссера Лассе Хальстрёма. На протяжении фильма зритель следит за тем, как диктор радиостанции Эшли Уоллес пытается взять эксклюзивное интервью у легендарной четверки.

Доп. информация:
Запись со спутника 1 HD канал
Премьера (мир) 15 декабря 1977



Сэмпл

Тип релиза: HDTV 1080i
Контейнер: TS

Видео: AVC/H.264, PAL, 1920x1080 (16:9), 7536 Кбит/сек, 25.000 fps
Аудио 1: русский, MP2, 2ch, 48,0 КГц, 192 Кбит/сек
Аудио 2: русский, AC3, 6ch, 48,0 КГц, 384 Кбит/сек
Общее
Идентификатор : 1 (0x1)
Полное имя : C:\Users\User\Desktop\ABBA (HDTV 1080i).ts
Формат : MPEG-TS
Размер файла : 5,35 Гбайт
Продолжительность : 1 ч. 29 м.
Режим общего битрейта : Переменный
Общий поток : 8540 Кбит/сек

Видео
Идентификатор : 2141 (0x85D)
Идентификатор меню : 1 (0x1)
Формат : AVC
Формат/Информация : Advanced Video Codec
Профиль формата : Main@L4.0
Параметр CABAC формата : Да
Параметр ReFrames формата : 3 кадра
Идентификатор кодека : 27
Продолжительность : 1 ч. 29 м.
Битрейт : 7536 Кбит/сек
Ширина : 1920 пикселей
Высота : 1080 пикселей
Соотношение сторон : 16:9
Частота кадров : 25,000 кадров/сек
Стандарт вещания : Component
Цветовое пространство : YUV
Субдискретизация насыщенности : 4:2:0
Битовая глубина : 8 бит
Тип развёртки : Чересстрочная
Порядок развёртки : Верхнее поле первое
Бит/(Пиксели*Кадры) : 0.145
Размер потока : 4,72 Гбайт (88%)
Основные цвета : BT.709
Характеристики трансфера : BT.709
Коэффициенты матрицы : BT.709
colour_range : Limited

Аудио #1
Идентификатор : 2142 (0x85E)
Идентификатор меню : 1 (0x1)
Формат : MPEG Audio
Версия формата : Version 1
Профиль формата : Layer 2
Идентификатор кодека : 3
Продолжительность : 1 ч. 29 м.
Вид битрейта : Постоянный
Битрейт : 192 Кбит/сек
Каналы : 2 канала
Частота : 48,0 КГц
Метод сжатия : С потерями
Размер потока : 123 Мбайт (2%)
Язык : Russian

Аудио #2
Идентификатор : 2143 (0x85F)
Идентификатор меню : 1 (0x1)
Формат : AC-3
Формат/Информация : Audio Coding 3
Расширение режима : CM (complete main)
Параметр Endianness формата : Big
Идентификатор кодека : 6
Продолжительность : 1 ч. 29 м.
Вид битрейта : Постоянный
Битрейт : 384 Кбит/сек
Каналы : 6 каналов
Расположение каналов : Front: L C R, Side: L R, LFE
Частота : 48,0 КГц
Битовая глубина : 16 бит
Метод сжатия : С потерями
Размер потока : 246 Мбайт (4%)
Язык : Russian
Аватара пользователя
Korsar
Помощник Администратора-Корсар
 
Месяцев на трекере: 9Месяцев на трекере: 9Месяцев на трекере: 9Месяцев на трекере: 9Месяцев на трекере: 9Месяцев на трекере: 9Месяцев на трекере: 9Месяцев на трекере: 9Месяцев на трекере: 9
 

Награды: 2
За отличные раздачи (2)
  • Торрент
Для скачивания торрента необходимо зарегистрироваться или войти на трекер.

Вернуться в Классика зарубежного кино (фильмы до 1980 года / HD Video)



проверить сайт