logo
Международный русскоязычный
торрент-трекер
Menu

Doublon
Поделиться с друзьями: 
Голосуй за Корсар и получи 400 дублонов
Рейтинг торрент трекеров - UpTracker.ru

АББА: Фильм / ABBA: The Movie (1977, Документальный, музыкальный, BDRip 720p)

Сообщение mister.hats » 08 ноя 2018, 11:21

АББА: фильм / ABBA: The Movie

Год выпуска: 1977
Жанр: Документальный, музыкальный
Выпущено: Швеция, Австралия, Polar Music International AB, Reg Grundy Productions Pty. Ltd.
Продолжительность: 01:35:17
Перевод: Профессиональный многоголосый, авторский

Режиссер: Лассе Халльстрём
В ролях: Агнета Фельтскуг, Бенни Андерссон, Бьёрн Ульвеус, Анни-Фрид Люнгстад, Роберт Хьюз, Том Оливер, Брюс Бэрри, Стиг Андерсон, Кэлвин Кросс, Ивар Дальборн

Описание: Фильм охватывает период наивысшей популярности легендарной шведской поп-группы "АББА", между альбомом 1976 года "Arrival" и альбомом 1977 года "The Album", песни из которых (а также более ранних альбомов) представлены в виде видеозарисовок во время феноменально успешных австралийских гастролей группы. Незадачливый репортер и диск-жокей Эшли Уоллес (Хьюз) пытается взять интервью у музыкантов. Постановка красивая, динамичная, без провалов и пустот, умный монтаж, создающий впечатление документальности происходящего. Зритель узнает о жизни и работе популярного квартета. В фильме звучат такие суперхиты АББА как "Dancing Queen", "Money, Money, Money", "Tiger", "The Name Of The Game", "Eagle", "Thank You For The Music" и др.



Кодек: х264
Качество: BDRip 720p
Видео: MPEG-4 AVC, 8241 Кбит/с, 1278x548, 24.000 кадр/с
Аудио 1: Русский (AC3, 6 ch, 448 Кбит/с) - Профессиональный многоголосый
Аудио 2: Русский (AC3, 6 ch, 448 Кбит/с) - Авторский одноголосый (А.Гаврилов)
Аудио 3: Английский (AC3, 6 ch, 448 Кбит/с)
Субтитры: Русские, английские
Главы: Есть



x264 [info]: frame I:809 Avg QP:15.26 size:129387
x264 [info]: frame P:32756 Avg QP:17.94 size: 63174
x264 [info]: frame B:103648 Avg QP:20.03 size: 35844

Общее
Уникальный идентификатор : 179353333753278832114287677184097790601 (0x86EE32138118CC6A8EF81FD680AA2A89)
Полное имя : H:киноАББА фильм 1977_BDRip 720p.mkv
Формат : Matroska
Версия формата : Version 2
Размер файла : 6,38 Гбайт
Продолжительность : 1 ч. 35 м.
Общий поток : 9587 Кбит/сек
Название фильма : ABBA.Film.1977.mister.hats
Дата кодирования : UTC 2018-11-03 21:06:34
Программа кодирования : mkvmerge v5.8.0 ('No Sleep / Pillow') built on Sep 2 2012 15:37:04
Библиотека кодирования : libebml v1.2.3 + libmatroska v1.3.0

Видео
Идентификатор : 1
Формат : AVC
Формат/Информация : Advanced Video Codec
Профиль формата : High@L4.1
Настройки формата : CABAC / 11 Ref Frames
Параметр CABAC формата : Да
Параметр RefFrames формата : 11 кадров
Идентификатор кодека : V_MPEG4/ISO/AVC
Продолжительность : 1 ч. 35 м.
Битрейт : 8241 Кбит/сек
Ширина : 1278 пикселей
Высота : 548 пикселей
Соотношение сторон : 2,35:1
Режим частоты кадров : Постоянный
Частота кадров : 24,000 кадра/сек
Цветовое пространство : YUV
Субдискретизация насыщенности : 4:2:0
Битовая глубина : 8 бит
Тип развёртки : Прогрессивная
Бит/(Пиксели*Кадры) : 0.490
Размер потока : 5,36 Гбайт (84%)
Библиотека кодирования : x264 core 152 r2851kMod ba24899
Настройки программы : cabac=1 / ref=11 / deblock=1:-2:-2 / analyse=0x3:0x113 / me=umh / subme=11 / psy=1 / fade_compensate=0.00 / psy_rd=1.00:0.00 / mixed_ref=1 / me_range=48 / chroma_me=1 / trellis=2 / 8x8dct=1 / cqm=0 / deadzone=21,11 / fast_pskip=0 / chroma_qp_offset=-2 / threads=12 / lookahead_threads=3 / sliced_threads=0 / nr=0 / decimate=0 / interlaced=0 / bluray_compat=0 / constrained_intra=0 / bframes=13 / b_pyramid=2 / b_adapt=2 / b_bias=0 / direct=3 / weightb=1 / open_gop=0 / weightp=2 / keyint=240 / keyint_min=24 / scenecut=40 / intra_refresh=0 / rc_lookahead=40 / rc=2pass / mbtree=0 / bitrate=8241 / ratetol=1.0 / qcomp=0.60 / qpmin=0 / qpmax=39 / qpstep=4 / cplxblur=20.0 / qblur=0.5 / vbv_maxrate=50000 / vbv_bufsize=62500 / nal_hrd=none / filler=0 / ip_ratio=1.25 / pb_ratio=1.30 / aq=1:0.90
Язык : English
Default : Да
Forced : Нет
Цветовой диапазон : Limited
Основные цвета : BT.709
Характеристики трансфера : BT.709
Коэффициенты матрицы : BT.709

Аудио #1
Идентификатор : 2
Формат : AC-3
Формат/Информация : Audio Coding 3
Параметр Endianness формата : Big
Идентификатор кодека : A_AC3
Продолжительность : 1 ч. 35 м.
Вид битрейта : Постоянный
Битрейт : 448 Кбит/сек
Каналы : 6 каналов
Расположение каналов : Front: L C R, Side: L R, LFE
Частота : 48,0 КГц
Частота кадров : 31,250 кадров/сек (1536 SPF)
Битовая глубина : 16 бит
Метод сжатия : С потерями
Размер потока : 305 Мбайт (5%)
Заголовок : Профессиональный многоголосый
Язык : Russian
Default : Да
Forced : Нет

Аудио #2
Идентификатор : 3
Формат : AC-3
Формат/Информация : Audio Coding 3
Параметр Endianness формата : Big
Идентификатор кодека : A_AC3
Продолжительность : 1 ч. 35 м.
Вид битрейта : Постоянный
Битрейт : 448 Кбит/сек
Каналы : 6 каналов
Расположение каналов : Front: L C R, Side: L R, LFE
Частота : 48,0 КГц
Частота кадров : 31,250 кадров/сек (1536 SPF)
Битовая глубина : 16 бит
Метод сжатия : С потерями
Размер потока : 305 Мбайт (5%)
Заголовок : Авторский одноголосый (А.Гаврилов)
Язык : Russian
Default : Нет
Forced : Нет

Аудио #3
Идентификатор : 4
Формат : AC-3
Формат/Информация : Audio Coding 3
Параметр Endianness формата : Big
Идентификатор кодека : A_AC3
Продолжительность : 1 ч. 35 м.
Вид битрейта : Постоянный
Битрейт : 448 Кбит/сек
Каналы : 6 каналов
Расположение каналов : Front: L C R, Side: L R, LFE
Частота : 48,0 КГц
Частота кадров : 31,250 кадров/сек (1536 SPF)
Битовая глубина : 16 бит
Метод сжатия : С потерями
Размер потока : 305 Мбайт (5%)
Заголовок : английский
Язык : English
Default : Нет
Forced : Нет

Текст #1
Идентификатор : 5
Формат : UTF-8
Идентификатор кодека : S_TEXT/UTF8
Идентификатор кодека/Информация : UTF-8 Plain Text
Язык : Russian
Default : Нет
Forced : Нет

Текст #2
Идентификатор : 6
Формат : UTF-8
Идентификатор кодека : S_TEXT/UTF8
Идентификатор кодека/Информация : UTF-8 Plain Text
Язык : Finnish
Default : Нет
Forced : Нет

Меню
00:00:00.000 : en:Chapter 01
00:03:41.125 : en:Chapter 02
00:05:56.207 : en:Chapter 03
00:10:18.415 : en:Chapter 04
00:18:36.875 : en:Chapter 05
00:25:27.375 : en:Chapter 06
00:32:20.041 : en:Chapter 07
00:41:58.125 : en:Chapter 08
00:48:05.791 : en:Chapter 09
00:52:53.166 : en:Chapter 10
01:03:39.541 : en:Chapter 11
01:12:35.291 : en:Chapter 12
01:17:07.666 : en:Chapter 13
01:21:33.541 : en:Chapter 14
01:29:54.457 : en:Chapter 15
01:33:29.791 : en:Chapter 16

Тот кто не с нами, тот против нас
КУБКИ

СТАЖ

МЕДАЛИ
Награды:51

За помощь проекту (7) Лучший по количеству кубков (12) За отличные раздачи и качество (21) За подробное оформление раздач (2) За отличные комментарии (1) Верный Сид (8)

Аватара пользователя
Тортуга
mister.hats
Заслуженный Корсар-Вип
  • Торрент
Для скачивания торрента необходимо зарегистрироваться или войти на трекер.

Сообщение kwazar312 » 08 ноя 2018, 12:29

Уважаемый mister.hats,огромное спасибо за прекрасный музыкальный фильм.
.........................................................................................................................................................
ABBA (рус. — «А́ББА») — шведский музыкальный квартет, существовавший в 1972—1982 годах и названный по первым буквам имён исполнителей: Агнета Фельтског, Бьорн Ульвеус, Бенни Андерссон, Анни-Фрид Лингстад. Является одним из наиболее успешных коллективов за всю историю популярной музыки и самым успешным из числа созданных в Скандинавии: записи группы по всему миру были проданы тиражом более 350 миллионов экземпляров.Синглы квартета занимали первые места в чартах с середины 1970-х («Waterloo») до начала 1980-х («One of Us»), а сборники возглавляли мировые хит-парады и в 2000-х. Музыка группы остаётся в плей-листах радиостанций, и их альбомы продолжают продаваться по сей день.Они были первыми представителями континентальной Европы, завоевавшими первые места в чартах всех ведущих англоговорящих стран (США, Великобритания, Канада, Ирландия, Австралия и Новая Зеландия).
За выдающиеся заслуги в музыке 15 марта 2010 года группа ABBA была включена в Зал славы рок-н-ролла.
КУБКИ

СТАЖ

МЕДАЛИ
Награды:64

За помощь проекту (7) Лучший по количеству кубков (16) За отличные комментарии (10) Верный Сид (25) За участие в конкурсах/играх (6)

Аватара пользователя
kwazar312
Заслуженный Корсар-Вип


Вернуться в Музыка (HD Video)



Uptime по данным Ping-Admin.Ru - сервиса мониторинга доступности сайтов
Рейтинг@Mail.ru Голосуйте за наш сайт в каталоге Rubo.Ru