logo
Международный русскоязычный
торрент-трекер
Menu
Doublon
Поделиться с друзьями: 
Голосуй за Корсар и получи 400 дублонов
Рейтинг торрент трекеров - UpTracker.ru

А ну-ка, дедушки! / Kochagad, papedo! (1981, комедия, музыкальный, SATRip)

Сообщение Шкипер » 06 дек 2018, 16:32

Название: А ну-ка, дедушки!
Оригинальное название: Kochagad, papedo!
Год выпуска: 1981
Жанр: Комедия, музыкальный
Режиссёр: Нинель Ненова-Цулая, Гено Цулая
В ролях: Василий Кахниашвили, Шалва Херхеулидзе, Михаил Вашадзе, Акакий Доборджинидзе, Димитр Панов, Петар Петров, Аспарух Сариев, Инна Симеонова, Леван Учанейшвили

О фильме: Ироничная история о не стареющих грузинских стариках, которые отправляются с хором долгожителей на фестиваль в Болгарию. Лиричные песни и зажигательные танцы исполняет Государственный ансамбль песни и танца Грузии "Рустави" вместе с болгарским ансамблем народного совета Болгарии.


Выпущено: СССР, Болгария, Грузия-фильм, Бояна
Перевод: Не требуется
Продолжительность: 01:22:24

Видео кодек: XviD
Качество: SATRip
Видео: XviD build 73, 640x464, 25.000 fps, 1126 kbps avg
Битрейт аудио: MP3, 2 ch, 128 Кбит/с


Автор:
Группа:

Грузинская речь - Профессиональный одноголосый,закадровый
General
Complete name : D:\A.nu.ka.dedushki.1981.SATRip ExKinoRay.avi
Format : AVI
Format/Info : Audio Video Interleave
File size : 745 MiB
Duration : 1 h 22 min
Overall bit rate : 1 264 kb/s
Writing application : VirtualDubMod 1.5.10.3 | www.virtualdub-fr.org || (build 2550/release)
Writing library : VirtualDubMod build 2550/release

Video
ID : 0
Format : MPEG-4 Visual
Format profile : Advanced Simple@L5
Format settings : BVOP1 / Custom Matrix
Format settings, BVOP : 1
Format settings, QPel : No
Format settings, GMC : No warppoints
Format settings, Matrix : Custom
Codec ID : XVID
Codec ID/Hint : XviD
Duration : 1 h 22 min
Bit rate : 1 126 kb/s
Width : 640 pixels
Height : 464 pixels
Display aspect ratio : 1.379
Frame rate : 25.000 FPS
Color space : YUV
Chroma subsampling : 4:2:0
Bit depth : 8 bits
Scan type : Progressive
Compression mode : Lossy
Bits/(Pixel*Frame) : 0.152
Stream size : 663 MiB (89%)
Writing library : XviD 73

Audio
ID : 1
Format : MPEG Audio
Format version : Version 1
Format profile : Layer 3
Codec ID : 55
Codec ID/Hint : MP3
Duration : 1 h 22 min
Bit rate mode : Constant
Bit rate : 128 kb/s
Channel(s) : 2 channels
Sampling rate : 48.0 kHz
Compression mode : Lossy
Stream size : 75.4 MiB (10%)
Alignment : Aligned on interleaves
Interleave, duration : 40 ms (1.00 video frame)
Interleave, preload duratio : 504 ms
Writing library : LAME3.99r
Encoding settings : -m s -V 4 -q 2 -lowpass 17 -b 128
КУБКИ

СТАЖ

МЕДАЛИ
Награды:6

За отличные раздачи и качество (2)

Аватара пользователя
Шкипер
Опытный Релизёр-Корсар
  • Торрент
Для скачивания торрента необходимо зарегистрироваться или войти на трекер.

Сообщение kwazar312 » 06 дек 2018, 17:42

а mkv будет?
Уважаемый Шкипер,большое спасибо за раздачу фильма.Удачи ВАМ.
КУБКИ

СТАЖ

МЕДАЛИ
Награды:70

За помощь проекту (7) Лучший по количеству кубков (19) За отличные комментарии (11) Верный Сид (27) За участие в конкурсах/играх (6)

Аватара пользователя
kwazar312
Заслуженный Корсар-Вип


Вернуться в Кино времён СССР



cron
Uptime по данным Ping-Admin.Ru - сервиса мониторинга доступности сайтов
Рейтинг@Mail.ru Голосуйте за наш сайт в каталоге Rubo.Ru